[ Сегодня идет свободное скачивание без начисления Download ]


Статистика раздачи
Нет
 
   
 
Top  
 
 
-Плачущий убийца / Crying Freeman (1995) DVDRip- Русское название: Плачущий убийца
Оригинальное название: Crying Freeman
Год выпуска: 1995
Страна: Канада, Франция, Япония, США
Слоган: «Once in a lifetime comes the perfect killer.»
Жанр: боевик, триллер, криминал--Режиссер: Кристоф Ганс
Актеры: Джули Кондра (Emu O'Hara), Кеван Охтци (Takeshi Shimazaki), Марк Дакаскос (Yo Hinomura / Freeman), Дэбби Подовски (Customs Agent), Мюррэй Лоури (Head Customs Agent), Байрон Манн (Koh), Микал Тэнг (Koh's Driver), Рей Дон Чонг (Detective Forge), Джерри Вассерман (Chief Randall), Чеки Карио (Detective Netah), Мако (Shudo Shimazaki), Тонг Ланг (Shimazaki's Bodyguard)-Описание фильма: Молодого художника Йо похищают и «перепрограммируют» в «Освободителя» — изощренного элитного убийцу, обладающего безграничными, почти фантастическими возможностями, способного ликвидировать даже главарей японской якудзы, главных противников его повелителей, Сынов Дракона. Красавица Эму оказывается случайной свидетельницей одного из убийств, совершенных Йо. Традиция «убийц-освободителей» требует, чтобы она погибла от его руки. Вместо этого, они влюбляются друг в друга и начинают одиссею страсти и насилия.- -Продолжительность: 01:37:29
Перевод: Многоголосый закадровый, авторский одноголосый
Язык субтитров: Русские, английские
Вид субтитров: Вшитые отключаемые--Качество видео: DVDRip
Видеокодек: MPEG-4 AVC/H.264
Битрейт видео: ~1 864 Кбит/с
Размер кадра: 692x434@984x434
Аудио 1: Русский: AC3; 5.1; 48 kHz; 384 kbps - Многоголосый
Аудио 2: Русский: AC3; 2.0; 48 kHz; 192 kbps - (Андрей Гаврилов)
Аудио 3: AC3; 5.1; 48 kHz; 384 kbps - Украинский (Канал "НТН")
Аудио 4: AC3; 5.1; 48 kHz; 384 kbps - Английский-

MediaInfo:

General
Unique ID : 190353745097339147148453545096792999427 (0x8F34CC3AB713E265AEE4A476C6A78603)
Complete name : G:\Plachuschij.ubijca.1995.(H.264).DVDRip.mkv
Format : Matroska
Format version : Version 2
File size : 2.18 GiB
Duration : 1h 37mn
Overall bit rate : 3 207 Kbps
Encoded date : UTC 2012-07-21 04:59:19
Writing application : mkvmerge v5.7.0 ('The Whirlwind') built on Jul 8 2012 20:08:51
Writing library : libebml v1.2.3 + libmatroska v1.3.0
Video
ID : 1
Format : AVC
Format/Info : Advanced Video Codec
Format profile : High@L4.1
Format settings, CABAC : Yes
Format settings, ReFrames : 10 frames
Codec ID : V_MPEG4/ISO/AVC
Duration : 1h 37mn
Bit rate : 1 864 Kbps
Width : 692 pixels
Height : 434 pixels
Display aspect ratio : 2.25:1
Original display aspect ratio : 2.25:1
Frame rate : 25.000 fps
Color space : YUV
Chroma subsampling : 4:2:0
Bit depth : 8 bits
Scan type : Progressive
Bits/(Pixel*Frame) : 0.248
Stream size : 1.23 GiB (56%)
Writing library : x264 core 125 r2200 999b753
Encoding settings : cabac=1 / ref=10 / deblock=1:-2:-1 / analyse=0x3:0x113 / me=umh / subme=11 / psy=1 / psy_rd=1.00:0.20 / mixed_ref=1 / me_range=32 / chroma_me=1 / trellis=2 / 8x8dct=1 / cqm=0 / deadzone=21,11 / fast_pskip=0 / chroma_qp_offset=-3 / threads=3 / lookahead_threads=1 / sliced_threads=0 / nr=0 / decimate=0 / interlaced=0 / bluray_compat=0 / constrained_intra=0 / bframes=8 / b_pyramid=2 / b_adapt=2 / b_bias=0 / direct=3 / weightb=1 / open_gop=0 / weightp=2 / keyint=250 / keyint_min=25 / scenecut=40 / intra_refresh=0 / rc_lookahead=40 / rc=2pass / mbtree=0 / bitrate=1864 / ratetol=1.0 / qcomp=0.60 / qpmin=0 / qpmax=69 / qpstep=4 / cplxblur=20.0 / qblur=0.5 / vbv_maxrate=50000 / vbv_bufsize=50000 / nal_hrd=none / ip_ratio=1.40 / pb_ratio=1.30 / aq=1:1.00
Language : English
Default : Yes
Forced : Yes
Audio #1
ID : 2
Format : AC-3
Format/Info : Audio Coding 3
Mode extension : CM (complete main)
Format settings, Endianness : Big
Codec ID : A_AC3
Duration : 1h 37mn
Bit rate mode : Constant
Bit rate : 384 Kbps
Channel(s) : 6 channels
Channel positions : Front: L C R, Side: L R, LFE
Sampling rate : 48.0 KHz
Bit depth : 16 bits
Compression mode : Lossy
Stream size : 268 MiB (12%)
Title : Многоголосый
Language : Russian
Default : Yes
Forced : Yes
Audio #2
ID : 3
Format : AC-3
Format/Info : Audio Coding 3
Mode extension : CM (complete main)
Format settings, Endianness : Big
Codec ID : A_AC3
Duration : 1h 37mn
Bit rate mode : Constant
Bit rate : 192 Kbps
Channel(s) : 2 channels
Channel positions : Front: L R
Sampling rate : 48.0 KHz
Bit depth : 16 bits
Compression mode : Lossy
Stream size : 134 MiB (6%)
Title : Авторский [Андрей Гаврилов]
Language : Russian
Default : No
Forced : No
Audio #3
ID : 4
Format : AC-3
Format/Info : Audio Coding 3
Mode extension : CM (complete main)
Format settings, Endianness : Big
Codec ID : A_AC3
Duration : 1h 37mn
Bit rate mode : Constant
Bit rate : 384 Kbps
Channel(s) : 6 channels
Channel positions : Front: L C R, Side: L R, LFE
Sampling rate : 48.0 KHz
Bit depth : 16 bits
Compression mode : Lossy
Stream size : 268 MiB (12%)
Title : Многоголосый [Канал НТН]
Language : Ukrainian
Default : No
Forced : No
Audio #4
ID : 5
Format : AC-3
Format/Info : Audio Coding 3
Mode extension : CM (complete main)
Format settings, Endianness : Big
Codec ID : A_AC3
Duration : 1h 37mn
Bit rate mode : Constant
Bit rate : 384 Kbps
Channel(s) : 6 channels
Channel positions : Front: L C R, Side: L R, LFE
Sampling rate : 48.0 KHz
Bit depth : 16 bits
Compression mode : Lossy
Stream size : 268 MiB (12%)
Language : English
Default : No
Forced : No
Text #1
ID : 6
Format : UTF-8
Codec ID : S_TEXT/UTF8
Codec ID/Info : UTF-8 Plain Text
Language : Russian
Default : No
Forced : No
Text #2
ID : 7
Format : UTF-8
Codec ID : S_TEXT/UTF8
Codec ID/Info : UTF-8 Plain Text
Language : English
Default : No
Forced : No
Menu
00:00:00.000 : :Chapter 01
00:03:10.680 : :Chapter 02
00:07:55.640 : :Chapter 03
00:11:08.400 : :Chapter 04
00:15:01.760 : :Chapter 05
00:19:11.200 : :Chapter 06
00:21:39.600 : :Chapter 07
00:25:10.080 : :Chapter 08
00:29:26.440 : :Chapter 09
00:32:03.800 : :Chapter 10
00:38:33.600 : :Chapter 11
00:43:41.680 : :Chapter 12
00:46:32.560 : :Chapter 13
00:49:37.800 : :Chapter 14
00:51:02.360 : :Chapter 15
00:56:23.760 : :Chapter 16
00:58:22.640 : :Chapter 17
01:03:23.480 : :Chapter 18
01:04:46.440 : :Chapter 19
01:08:12.240 : :Chapter 20
01:11:28.360 : :Chapter 21
01:16:52.240 : :Chapter 22
01:21:58.400 : :Chapter 23
01:31:07.360 : :Chapter 24
01:37:28.520 : :Chapter 25
-Скриншоты:
-Время раздачи: С 09:00 до 24:00

[Цитировать]



Показать сообщения:    

Текущее время: 09-Дек 04:57

Часовой пояс: UTC + 3


Вы не можете начинать темы
Вы не можете отвечать на сообщения
Вы не можете редактировать свои сообщения
Вы не можете удалять свои сообщения
Вы не можете голосовать в опросах
Вы не можете прикреплять файлы к сообщениям
Вы не можете скачивать файлы

!ВНИМАНИЕ!
Сайт не предоставляет электронные версии произведений, а занимается лишь коллекционированием и каталогизацией ссылок, присылаемых и публикуемых на форуме нашими читателями. Если вы являетесь правообладателем какого-либо представленного материала и не желаете, чтобы ссылка на него находилась в нашем каталоге, свяжитесь с нами, и мы незамедлительно удалим ее. Файлы для обмена на трекере предоставлены пользователями сайта, и администрация не несет ответственности за их содержание. Просьба не заливать файлы, защищенные авторскими правами, а также файлы нелегального содержания!