[ Сегодня идет свободное скачивание без начисления Download ]


Статистика раздачи
Нет
 
   
 
Top  
 
 
-Площадь Колумба / Columbus Circle (2012) HDRip- Русское название: Площадь Колумба
Оригинальное название: Columbus Circle
Год выпуска: 2012
Производство: США | Oxymoron Entertainment
Жанр: Триллер, Криминал, Детектив
Перевод: Многолосый закадровый, профессиональный
Субтитроы: Отсутствуют-Дата мировой премьеры: 21 февраля 2012-Режиссер: Джордж Галло-Ппродюсер: Кристофер Маллик, Уильям Шерак, Джейсон Шуман-Актеры: Сэльма Блэр, Эми Смарт, Джейсон Ли, Джованни Рибизи, Кевин Поллак, Бо Бриджес, Джейсон Антун, Джерри Пенаколи, Роберт Гийом, Сэмм Ливайн-Описание фильма:
Сюжет фильма строится вокруг нелюдимой и одинокой наследницы состояния своей семьи Эбигейл, которая не покидает квартиры на Манхэттене уже два десятка лет. Она общается только с двумя людьми: через записки с консьержем своего дома и с доктором Реймондом Фонтейном, старинным другом семьи Эбигейл и поверенным во всех ее делах.
Героине приходится столкнуться со своими страхами, когда полицейский детектив начинает расследование убийства, произошедшего в соседнем доме, а незнакомая супружеская пара въезжают в квартиру, где произошло убийство.-
Продолжительность: 01:25:54
Качество видео: HDRip
Видеокодек: Xvid
Битрейт видео: ~ 1966 Кбит/сек
Размер кадра: 720 x 304 (2.400) at 23.976 fps
Аудиокодек: AC3 2.0
Аудио #1: AC3 224 Кбит/сек (2ch), 48,0 КГц [Русский.MVO]
Аудио #2: AC3 224 Кбит/сек (6ch), 48,0 КГц [Английский]

Трейлер / Ролик

[youtube]http://www.youtube.com/v/yAQe5jITKTA&fs=1[/youtube]

Знаете ли вы, что...

? Коламбус-серкл - крупная площадь в центре Нью-Йорка, расположенная на пересечении трех улиц: Пятьдесят девятой, Восьмой авеню и Бродвея. В честь 400-летия США на этой площади была установлена колонна с бюстом Колумба.

MediaInfo:

Полное имя                               : F:\Площадь Колумба  Columbus Circle 2012 HDRip\Ploshadj.kolymba.2012.P.HDRip.avi
Формат                                   : AVI
Формат/Информация                        : Audio Video Interleave
Размер файла                             : 1,46 Гбайт
Продолжительность                        : 1 ч. 25 м.
Общий поток                              : 2427 Кбит/сек
Программа кодирования                    : VirtualDubMod 1.5.10.2 (build 2540/release)
Библиотека кодирования                   : VirtualDubMod build 2540/release
Видео
Идентификатор                            : 0
Формат                                   : MPEG-4 Visual
Профиль формата                          : Advanced [email protected]
Параметр BVOP формата                    : 1
Параметр QPel формата                    : Нет
Параметр GMC формата                     : Без точки перехода
Параметр матрицы формата                 : Default (MPEG)
Идентификатор кодека                     : XVID
Идентификатор кодека/Подсказка           : XviD
Продолжительность                        : 1 ч. 25 м.
Битрейт                                  : 1966 Кбит/сек
Ширина                                   : 720 пикселей
Высота                                   : 304 пикселя
Соотношение сторон                       : 2,40:1
Частота кадров                           : 23,976 кадра/сек
Цветовое пространство                    : YUV
Субдискретизация насыщенности            : 4:2:0
Битовая глубина                          : 8 бит
Тип развёртки                            : Прогрессивная
Метод сжатия                             : С потерями
Бит/(Пиксели*Кадры)                      : 0.375
Размер потока                            : 1,18 Гбайт (81%)
Библиотека кодирования                   : XviD 1.2.1 (UTC 2008-12-04)
Аудио #1
Идентификатор                            : 1
Формат                                   : AC-3
Формат/Информация                        : Audio Coding 3
Расширение режима                        : CM (complete main)
Параметр Endianness формата              : Big
Идентификатор кодека                     : 2000
Продолжительность                        : 1 ч. 25 м.
Вид битрейта                             : Постоянный
Битрейт                                  : 224 Кбит/сек
Каналы                                   : 2 канала
Расположение каналов                     : Front: L R
Частота                                  : 48,0 КГц
Битовая глубина                          : 16 бит
Метод сжатия                             : С потерями
Размер потока                            : 137 Мбайт (9%)
Выравнивание                             : Разделение по промежуткам
Продолжительность промежутка             : 42  мс. (1,00 видеокадр)
Время предзагрузки промежутка            : 500  мс.
Аудио #2
Идентификатор                            : 2
Формат                                   : AC-3
Формат/Информация                        : Audio Coding 3
Расширение режима                        : CM (complete main)
Параметр Endianness формата              : Big
Идентификатор кодека                     : 2000
Продолжительность                        : 1 ч. 25 м.
Вид битрейта                             : Постоянный
Битрейт                                  : 224 Кбит/сек
Каналы                                   : 2 канала
Расположение каналов                     : Front: L R
Частота                                  : 48,0 КГц
Битовая глубина                          : 16 бит
Метод сжатия                             : С потерями
Размер потока                            : 138 Мбайт (9%)
Выравнивание                             : Разделение по промежуткам
Продолжительность промежутка             : 42  мс. (1,00 видеокадр)
Время предзагрузки промежутка            : 500  мс.
Скриншоты:

-Все релизы Площадь Колумба на NNM-CLUB-Время раздачи: 24/7 (до 10 скачавших)

[Цитировать]



Показать сообщения:    

Текущее время: 04-Дек 23:26

Часовой пояс: UTC + 3


Вы не можете начинать темы
Вы не можете отвечать на сообщения
Вы не можете редактировать свои сообщения
Вы не можете удалять свои сообщения
Вы не можете голосовать в опросах
Вы не можете прикреплять файлы к сообщениям
Вы не можете скачивать файлы

!ВНИМАНИЕ!
Сайт не предоставляет электронные версии произведений, а занимается лишь коллекционированием и каталогизацией ссылок, присылаемых и публикуемых на форуме нашими читателями. Если вы являетесь правообладателем какого-либо представленного материала и не желаете, чтобы ссылка на него находилась в нашем каталоге, свяжитесь с нами, и мы незамедлительно удалим ее. Файлы для обмена на трекере предоставлены пользователями сайта, и администрация не несет ответственности за их содержание. Просьба не заливать файлы, защищенные авторскими правами, а также файлы нелегального содержания!