[ Сегодня идет свободное скачивание без начисления Download ]


Статистика раздачи
Нет
 
   
 
Top  
 
 
-Глубокий порез / Smash Cut [Режиссерская версия] (2009) HDRip- Русское название: Глубокий порез
Оригинальное название: Smash Cut
Год выпуска: 2009
Жанр: Ужасы, Комедия
Продолжительность: 01:26:22
Описание фильма:
Впавший в глубочайшую депресиию из-за неудачи своего последнего фильма, режиссёр Эйбл Уитман, обнаруживает себя в одном стриптиз клубе, где «снимает» и увозит к себе домой одну из стриптизёрш, Гиги Стопс. Однако по дороге происходит несчастный случай, в результате которого Гиги погибает, а Эйбл «зависает» над телом не зная, что предпринять. Он приходит к решению, что надо использовать части тела Гиги, как детали для своего будущего фильма-ужаса. Когда его творческая «находка» вызвала огромный интерес у коллег и принесла ему успех, он решает, что для «наполнения» своего проекта ему необходимо гораздо больше «запасных частей».
Режиссер: Ли Демарбр
Актеры: Дэвид Хесс, Джесси Бак, Майкл Берриман, Рэй Сейджер, Саша Грэй, Бэрри Блейк, Париса Касаи, Питер Майкл Диллон
Перевод: Профессиональный (Многоголосый) [Лицензия]
Студия: («West Video»)

Видеокодек: Xvid
Качество видео: HDRip
Видео: 656x368 (1.78:1), 23.976 fps, XviD build 65 ~1065 kbps avg, 0.18 bit/pixel
Аудио: 48 kHz, MPEG Layer 3, 2 ch, ~128.00 kbps avg

MediaInfo:

General
Complete name : J:\Глубокий порез Smash Cut [UNRATED] (2009) 743MB.avi
Format : AVI
Format/Info : Audio Video Interleave
File size : 743 MiB
Duration : 1h 26mn
Overall bit rate : 1 203 Kbps
Writing application : VirtualDubMod 1.5.10.3 | www.virtualdub-fr.org || (build 2550/release)
Writing library : VirtualDubMod build 2550/release
Video
ID : 0
Format : MPEG-4 Visual
Format profile : Advanced Simple@L5
Format settings, BVOP : 2
Format settings, QPel : No
Format settings, GMC : No warppoints
Format settings, Matrix : Custom
Codec ID : XVID
Codec ID/Hint : XviD
Duration : 1h 26mn
Bit rate : 1 066 Kbps
Width : 656 pixels
Height : 368 pixels
Display aspect ratio : 16:9
Frame rate : 23.976 fps
Color space : YUV
Chroma subsampling : 4:2:0
Bit depth : 8 bits
Scan type : Progressive
Compression mode : Lossy
Bits/(Pixel*Frame) : 0.184
Stream size : 658 MiB (89%)
Writing library : XviD 65
Audio
ID : 1
Format : MPEG Audio
Format version : Version 1
Format profile : Layer 3
Codec ID : 55
Codec ID/Hint : MP3
Duration : 1h 26mn
Bit rate mode : Constant
Bit rate : 128 Kbps
Channel(s) : 2 channels
Sampling rate : 48.0 KHz
Compression mode : Lossy
Stream size : 79.1 MiB (11%)
Alignment : Aligned on interleaves
Interleave, duration : 42 ms (1.00 video frame)
Interleave, preload duration : 504 ms
Writing library : L3.99r
Encoding settings : -m s -V 4 -q 2 -lowpass 17 -b 128
Скриншоты: Время раздачи: С 23:00 до 8:30 (24/7 - круглосуточно)

[Цитировать]



Показать сообщения:    

Текущее время: 11-Дек 14:52

Часовой пояс: UTC + 3


Вы не можете начинать темы
Вы не можете отвечать на сообщения
Вы не можете редактировать свои сообщения
Вы не можете удалять свои сообщения
Вы не можете голосовать в опросах
Вы не можете прикреплять файлы к сообщениям
Вы не можете скачивать файлы

!ВНИМАНИЕ!
Сайт не предоставляет электронные версии произведений, а занимается лишь коллекционированием и каталогизацией ссылок, присылаемых и публикуемых на форуме нашими читателями. Если вы являетесь правообладателем какого-либо представленного материала и не желаете, чтобы ссылка на него находилась в нашем каталоге, свяжитесь с нами, и мы незамедлительно удалим ее. Файлы для обмена на трекере предоставлены пользователями сайта, и администрация не несет ответственности за их содержание. Просьба не заливать файлы, защищенные авторскими правами, а также файлы нелегального содержания!