[ Сегодня идет свободное скачивание без начисления Download ]


Статистика раздачи
Нет
 
   
 
Top  
 
 
-Голодный кролик атакует / Seeking Justice (2011) [H.264] BDRip-«Vengeance always has a price»- Русское название: Голодный кролик атакует
Оригинальное название: Seeking Justice
Год выпуска: 2011
Производство: США, Endgame Entertainment
Жанр: Триллер, Боевик, Драма
Перевод: Дублированный
Субтитры: Вшитые отключаемые
Язык субтитров: Русский, Английский
Продолжительность: 01:45:01
Дата мировой премьеры: 2 сентября 2011
Дата российской премьеры: 12 января 2012, «Каскад»
Дата выхода DVD релиза: 16 февраля 2012, «CP-Digital»
Режиссер: Роджер Дональдсон
Актеры: Николас Кейдж, Дженьюэри Джонс, Гай Пирс, Дженнифер Карпентер, Хэролд Перрино, Ксандер Беркли, Айрон Э. Синглтон, Майк Пневски, Моника Акоста, Джо Крест
Описание фильма:
Фильм сфокусируется на человеке, супруга которого становится жертвой жестокого преступления, и он внедряется в тайную организацию мстителей.- -Качество видео: BDRip
Формат: MKV
Видеокодек: MPEG-4 AVC/H.264
Видео: MPEG-4 AVC, 1598 Кбит/с, 1120x476, 24.000 кадр/с
Аудио: Русский (AC3, 6 ch, 448 Кбит/c, 48,0 КГц

MediaInfo:

General
Unique ID : 240183623927929929861819099135633476175 (0xB4B1AEEFDB571D46A62652B2EE374A4F)
Complete name : J:\Голодный кролик атакует Seeking Justice (2011) [H.264].mkv
Format : Matroska
Format version : Version 1
File size : 1.50 GiB
Duration : 1h 45mn
Overall bit rate : 2 048 Kbps
Movie name : Голодный кролик атакует / Seeking Justice (2011) BDRip-AVC - firebit.org
Encoded date : UTC 2012-02-14 18:39:45
Writing application : mkvmerge v2.3.0 ('Freak U') built on Sep 8 2008 18:32:16
Writing library : libebml v0.7.7 + libmatroska v0.8.1
Video
ID : 1
Format : AVC
Format/Info : Advanced Video Codec
Format profile : [email protected]
Format settings, CABAC : Yes
Format settings, ReFrames : 10 frames
Codec ID : V_MPEG4/ISO/AVC
Duration : 1h 45mn
Bit rate : 1 598 Kbps
Width : 1 120 pixels
Height : 476 pixels
Display aspect ratio : 2.35:1
Frame rate mode : Constant
Frame rate : 24.000 fps
Color space : YUV
Chroma subsampling : 4:2:0
Bit depth : 8 bits
Scan type : Progressive
Bits/(Pixel*Frame) : 0.125
Stream size : 1.14 GiB (76%)
Title : http://firebit.org
Writing library : x264 core 120 r2146 bcd41db
Encoding settings : cabac=1 / ref=10 / deblock=1:-2:-1 / analyse=0x3:0x133 / me=umh / subme=11 / psy=1 / psy_rd=1.00:0.07 / mixed_ref=1 / me_range=32 / chroma_me=1 / trellis=2 / 8x8dct=1 / cqm=0 / deadzone=21,11 / fast_pskip=0 / chroma_qp_offset=-3 / threads=12 / sliced_threads=0 / nr=0 / decimate=1 / interlaced=0 / bluray_compat=0 / constrained_intra=0 / bframes=7 / b_pyramid=2 / b_adapt=2 / b_bias=0 / direct=3 / weightb=1 / open_gop=0 / weightp=2 / keyint=250 / keyint_min=24 / scenecut=40 / intra_refresh=0 / rc_lookahead=80 / rc=2pass / mbtree=1 / bitrate=1598 / ratetol=1.0 / qcomp=0.60 / qpmin=0 / qpmax=69 / qpstep=4 / cplxblur=20.0 / qblur=0.5 / ip_ratio=1.40 / aq=1:1.00
Language : English
Default : Yes
Forced : No
Audio
ID : 2
Format : AC-3
Format/Info : Audio Coding 3
Mode extension : CM (complete main)
Format settings, Endianness : Big
Codec ID : A_AC3
Duration : 1h 45mn
Bit rate mode : Constant
Bit rate : 448 Kbps
Channel(s) : 6 channels
Channel positions : Front: L C R, Side: L R, LFE
Sampling rate : 48.0 KHz
Bit depth : 16 bits
Compression mode : Lossy
Stream size : 337 MiB (22%)
Title : http://firebit.org
Language : Russian
Default : Yes
Forced : No
Text #1
ID : 3
Format : UTF-8
Codec ID : S_TEXT/UTF8
Codec ID/Info : UTF-8 Plain Text
Title : http://firebit.org
Language : English
Default : Yes
Forced : No
Text #2
ID : 4
Format : UTF-8
Codec ID : S_TEXT/UTF8
Codec ID/Info : UTF-8 Plain Text
Title : http://firebit.org
Language : English
Default : No
Forced : No
Скриншоты: Время раздачи: С 23:00 до 8:30 (24/7 - круглосуточно)

[Цитировать]



Показать сообщения:    

Текущее время: 05-Дек 05:32

Часовой пояс: UTC + 3


Вы не можете начинать темы
Вы не можете отвечать на сообщения
Вы не можете редактировать свои сообщения
Вы не можете удалять свои сообщения
Вы не можете голосовать в опросах
Вы не можете прикреплять файлы к сообщениям
Вы не можете скачивать файлы

!ВНИМАНИЕ!
Сайт не предоставляет электронные версии произведений, а занимается лишь коллекционированием и каталогизацией ссылок, присылаемых и публикуемых на форуме нашими читателями. Если вы являетесь правообладателем какого-либо представленного материала и не желаете, чтобы ссылка на него находилась в нашем каталоге, свяжитесь с нами, и мы незамедлительно удалим ее. Файлы для обмена на трекере предоставлены пользователями сайта, и администрация не несет ответственности за их содержание. Просьба не заливать файлы, защищенные авторскими правами, а также файлы нелегального содержания!