[ Сегодня идет свободное скачивание без начисления Download ]


Статистика раздачи
Нет
 
   
 
Top  
 
 
-Холостячки / Bachelorette (2012) BDRip-«Комедия о том, как плохие девочки получают всё»- Русское название: Холостячки
Оригинальное название: Bachelorette
Год выпуска: 2012
Жанр: Романтическая комедия
Описание фильма:
Три симпатичные и острые на язык незамужние подруги приезжают на свадьбу бывшей одноклассницы-толстушки и… случайно портят впечатляющее своими размерами подвенечное платье невесты. А ведь завтра ей идти к алтарю! За одну ночь холостячкам предстоит проделать головокружительное путешествие по стрип-клубам, туалетным комнатам и мужским спальням во имя спасения свадьбы той, которую они терпеть не могут.
Режиссер: Лесли Хэдланд
Актеры: Кирстен Данст, Айла Фишер, Лиззи Каплан, Джеймс Мэрсден, Кайл Борнхеймер, Ребел Уилсон, Адам Скотт, Хэйес МакАртур, Энди Раннеллс, Элла Рэй Пек
Продолжительность: 01:27:03
Перевод: Дублированный + Профессиональный (многоголосый закадровый) - Украинский

Дата мировой премьеры: 23 января 2012
Дата российской премьеры: 6 сентября 2012
Дата выхода DVD релиза: 22 ноября 2012
Видеокодек: Xvid
Битрейт видео: ~1960 kb/s
Размер кадра: 720х304
Качество видео: BDRip
Аудио#1: 48 kHz, AC3 5.1, 448.00 kbps / Дубляж
Аудио#2: 48 kHz, AC3 2.0, 192.00 kbps / Профессиональный (многоголосый закадровый) - Украинский
Аудио#3: 48 kHz, AC3 5.1, 448.00 kbps / Оригинал (Английский)
&

MI

Общее
Полное имя : E:\Фильмы М\Bachelorette.2012.BDRip.Rus.Ukr.Eng.avi
Формат : AVI
Формат/Информация : Audio Video Interleave
Размер файла : 1,87 Гбайт
Продолжительность : 1 ч. 27 м.
Общий поток : 3067 Кбит/сек
Программа кодирования : VirtualDubModRus 1.5.10.2 (build 2542/release)
Библиотека кодирования : VirtualDubMod build 2542/release
Видео
Идентификатор : 0
Формат : MPEG-4 Visual
Профиль формата : Advanced Simple@L5
Параметр BVOP формата : 1
Параметр QPel формата : Нет
Параметр GMC формата : Без точки перехода
Параметр матрицы формата : Выборочная
Режим смешивания : Сжатый битовый поток
Идентификатор кодека : XVID
Идентификатор кодека/Подсказка : XviD
Продолжительность : 1 ч. 27 м.
Битрейт : 1960 Кбит/сек
Ширина : 720 пикселей
Высота : 304 пикселя
Соотношение сторон : 2,35:1
Частота кадров : 24,000 кадра/сек
Цветовое пространство : YUV
Субдискретизация насыщенности : 4:2:0
Битовая глубина : 8 бит
Тип развёртки : Прогрессивная
Метод сжатия : С потерями
Бит/(Пиксели*Кадры) : 0.373
Размер потока : 1,19 Гбайт (64%)
Библиотека кодирования : XviD 65
Аудио #1
Идентификатор : 1
Формат : AC-3
Формат/Информация : Audio Coding 3
Расширение режима : CM (complete main)
Параметр Endianness формата : Big
Идентификатор кодека : 2000
Продолжительность : 1 ч. 27 м.
Вид битрейта : Постоянный
Битрейт : 448 Кбит/сек
Каналы : 6 каналов
Расположение каналов : Front: L C R, Side: L R, LFE
Частота : 48,0 КГц
Битовая глубина : 16 бит
Метод сжатия : С потерями
Размер потока : 279 Мбайт (15%)
Выравнивание : Разделение по промежуткам
Продолжительность промежутка : 42 мс. (1,00 видеокадр)
Время предзагрузки промежутка : 500 мс.
Аудио #2
Идентификатор : 2
Формат : AC-3
Формат/Информация : Audio Coding 3
Расширение режима : CM (complete main)
Параметр Endianness формата : Big
Идентификатор кодека : 2000
Продолжительность : 1 ч. 27 м.
Вид битрейта : Постоянный
Битрейт : 192 Кбит/сек
Каналы : 2 канала
Расположение каналов : Front: L R
Частота : 48,0 КГц
Битовая глубина : 16 бит
Метод сжатия : С потерями
Размер потока : 120 Мбайт (6%)
Выравнивание : Разделение по промежуткам
Продолжительность промежутка : 42 мс. (1,00 видеокадр)
Время предзагрузки промежутка : 500 мс.
Аудио #3
Идентификатор : 3
Формат : AC-3
Формат/Информация : Audio Coding 3
Расширение режима : CM (complete main)
Параметр Endianness формата : Big
Идентификатор кодека : 2000
Продолжительность : 1 ч. 27 м.
Вид битрейта : Постоянный
Битрейт : 448 Кбит/сек
Каналы : 6 каналов
Расположение каналов : Front: L C R, Side: L R, LFE
Частота : 48,0 КГц
Битовая глубина : 16 бит
Метод сжатия : С потерями
Размер потока : 279 Мбайт (15%)
Выравнивание : Разделение по промежуткам
Продолжительность промежутка : 42 мс. (1,00 видеокадр)
Время предзагрузки промежутка : 500 мс.
Скриншоты:

Время раздачи: С 23:00 до 6:00

[Цитировать]



Показать сообщения:    

Текущее время: 30-Апр 03:26

Часовой пояс: UTC + 6


Вы не можете начинать темы
Вы не можете отвечать на сообщения
Вы не можете редактировать свои сообщения
Вы не можете удалять свои сообщения
Вы не можете голосовать в опросах
Вы не можете прикреплять файлы к сообщениям
Вы не можете скачивать файлы

!ВНИМАНИЕ!
Сайт не предоставляет электронные версии произведений, а занимается лишь коллекционированием и каталогизацией ссылок, присылаемых и публикуемых на форуме нашими читателями. Если вы являетесь правообладателем какого-либо представленного материала и не желаете, чтобы ссылка на него находилась в нашем каталоге, свяжитесь с нами, и мы незамедлительно удалим ее. Файлы для обмена на трекере предоставлены пользователями сайта, и администрация не несет ответственности за их содержание. Просьба не заливать файлы, защищенные авторскими правами, а также файлы нелегального содержания!