[ Сегодня идет свободное скачивание без начисления Download ]


Статистика раздачи
Нет
 
   
 
Top  
 
 
-Цитадель / Citadel (2012) HDRip- Русское название: Цитадель
Оригинальное название: Citadel
Год выпуска: 2012
Выпущено: Ирландия, Великобритания / Blinder Films, Irish Film Board, Sigma Films
Жанр: Ужасы, Триллер, Драма-Описание фильма:
Герой фильма Томми Коули, житель Эденстоуна, страдающий боязнью открытого пространства, вынужден скрываться по закоулкам покинутого города, по которому пронеслась волна безумных по своей сущности преступлений. Преследуемый бандой малолеток в капюшонах он спасается сам и спасает свою малолетнюю дочь. Ему кажется, что спасения можно достичь лишь в заброшенной башне, известной как Цитадель…-Режиссер: Киаран Фой
Продюсер: Брайан Коффи, Кэти Холли, Джиллиан Берри
Актеры: Анайрин Барнард, Джеймс Космо, Вунми Моссаку, Джейк Уилсон, Эми Шилз-Дата мировой премьеры: 11 марта 2012-Продолжительность: 01:24:24
Перевод: Одноголосый закадровый, любительский [den904]
Автор перевода: Dr. Pro- -Видеокодек: Xvid
Битрейт видео: ~1017 kb/s
Размер кадра: 640x352
Качество видео: HDRip
Аудиокодек: MP3 (2 ch)
Битрейт аудио: 128 kb/s

MediaInfo

Общее
Полное имя : D:\Торрент раздача\Citadel.2012.L1.HDRip.700MB.avi
Формат : AVI
Формат/Информация : Audio Video Interleave
Размер файла : 697 Мбайт
Продолжительность : 1 ч. 24 м.
Общий поток : 1155 Кбит/сек
Программа кодирования : VirtualDubMod 1.5.10.2 (build 2540/release)
Библиотека кодирования : VirtualDubMod build 2540/release
Видео
Идентификатор : 0
Формат : MPEG-4 Visual
Профиль формата : Advanced Simple@L5
Параметр BVOP формата : Нет
Параметр QPel формата : Нет
Параметр GMC формата : Без точки перехода
Параметр матрицы формата : Default (H.263)
Идентификатор кодека : XVID
Идентификатор кодека/Подсказка : XviD
Продолжительность : 1 ч. 24 м.
Битрейт : 1017 Кбит/сек
Ширина : 640 пикселей
Высота : 352 пикселя
Соотношение сторон : 16:9
Частота кадров : 23,976 кадра/сек
Цветовое пространство : YUV
Субдискретизация насыщенности : 4:2:0
Битовая глубина : 8 бит
Тип развёртки : Прогрессивная
Метод сжатия : С потерями
Бит/(Пиксели*Кадры) : 0.188
Размер потока : 614 Мбайт (88%)
Библиотека кодирования : XviD 1.2.1 (UTC 2008-12-04)
Аудио
Идентификатор : 1
Формат : MPEG Audio
Версия формата : Version 1
Профиль формата : Layer 3
Режим : Joint stereo
Расширение режима : MS Stereo
Идентификатор кодека : 55
Идентификатор кодека/Подсказка : MP3
Продолжительность : 1 ч. 24 м.
Вид битрейта : Постоянный
Битрейт : 128 Кбит/сек
Каналы : 2 канала
Частота : 48,0 КГц
Метод сжатия : С потерями
Размер потока : 77,3 Мбайт (11%)
Выравнивание : Соединение по промежуткам
Продолжительность промежутка : 42 мс. (1,00 видеокадр)
Время предзагрузки промежутка : 504 мс.
Скриншоты:
Время раздачи: 08:00 - 23:00 (МСК)

[Цитировать]



Показать сообщения:    

Текущее время: 08-Дек 12:53

Часовой пояс: UTC + 3


Вы не можете начинать темы
Вы не можете отвечать на сообщения
Вы не можете редактировать свои сообщения
Вы не можете удалять свои сообщения
Вы не можете голосовать в опросах
Вы не можете прикреплять файлы к сообщениям
Вы не можете скачивать файлы

!ВНИМАНИЕ!
Сайт не предоставляет электронные версии произведений, а занимается лишь коллекционированием и каталогизацией ссылок, присылаемых и публикуемых на форуме нашими читателями. Если вы являетесь правообладателем какого-либо представленного материала и не желаете, чтобы ссылка на него находилась в нашем каталоге, свяжитесь с нами, и мы незамедлительно удалим ее. Файлы для обмена на трекере предоставлены пользователями сайта, и администрация не несет ответственности за их содержание. Просьба не заливать файлы, защищенные авторскими правами, а также файлы нелегального содержания!