[ Сегодня идет свободное скачивание без начисления Download ]


Статистика раздачи
Нет
 
   
 
Top  
 
 
-Дорога домой: Невероятное путешествие / Homeward Bound: The Incredible Journey (1993) DVDRip [H.264]- Страна: США
Русское название: Дорога домой: Невероятное путешествие
Оригинальное название: Homeward Bound: The Incredible Journey
Год выпуска: 1992
Жанр: Драма, Комедия, Приключения, Семейный
Описание фильма:
Взбалмошный бульдог Шанс, мудрый пёс Шэдоу и гималайская красавица – кошка Сэсси, живут в семье, которая в них души не чает. Но главе семьи, Бобу, нужно срочно ехать в Сан Франциско по работе и он берёт жену и детей с собой, а четвероногих друзей оставляет на ферме у знакомой. Животные очень обеспокоились этой неожиданной разлукой и решают во что бы то ни стало вернуться домой, проделав огромный путь через леса и горы, где их на каждом шагу подстерегают опасности. Дружба, преданность и юмор помогут им преодолеть этот сложный путь.
Режиссер: Дуэйн Данэм / Duwayne Dunham
Актеры: Дон Алдер, Эд Бернард, Кевин Чевалия, Энн Кристиансон, Тед Д’Арм, Вуди Еней, Ким Грайст, Рич Хоукинс, Роберт Хэйс
В главных ролях: домашние и дикие животные
Продолжительность: 01:24:39
Перевод: Многоголосый закадровый, Одноголосный закадровый

Качество: DVDRip by big1987
Формат: MKV
Видео: x264, 716x480@716x540 (4:3), 23,976, 2271 Kbps, Bits/(Pixel*Frame): 0.276
Аудио 1: AC3 Dolby Digital, 2/0 (L,R) ch, ~192.00 kbps avg, Русский, Многоголосый закадровый
Аудио 2: AC3 Dolby Digital, 2/0 (L,R) ch, ~192.00 kbps avg, Русский, Одноголосный закадровый (Горчаков)
Аудио 3: AC3 Dolby Digital, 2/0 (L,R) ch, ~192.00 kbps avg, Original, English
Субтитры: Русские, Английские
Навигация по главам: нет
Сэмпл: Ссылка

Mediainfo

General
Complete name : Дорога домой - Невероятное путешествие. Homeward Bound - The Incredible Journey.1993.(зам.детский про животных). DVDRip-AVC.mkv
Format : Matroska
Format version : Version 2
File size : 1.68 GiB
Duration : 1h 24mn
Overall bit rate : 2 847 Kbps
Movie name : Дорога домой: Невероятное путешествие [1992, DVDRip/AVC] || big1987
Encoded date : UTC 2012-04-19 16:37:02
Writing application : mkvmerge v5.0.1 ('Es ist Sommer') built on Oct 9 2011 11:55:43
Writing library : libebml v1.2.2 + libmatroska v1.3.0
Video
ID : 1
Format : AVC
Format/Info : Advanced Video Codec
Format profile : High@L3.1
Format settings, CABAC : Yes
Format settings, ReFrames : 9 frames
Muxing mode : Header stripping
Codec ID : V_MPEG4/ISO/AVC
Duration : 1h 24mn
Bit rate : 2 271 Kbps
Width : 716 pixels
Height : 480 pixels
Display aspect ratio : 4:3
Frame rate mode : Constant
Frame rate : 23.976 fps
Color space : YUV
Chroma subsampling : 4:2:0
Bit depth : 8 bits
Scan type : Progressive
Bits/(Pixel*Frame) : 0.276
Stream size : 1.31 GiB (78%)
Title : Дорога домой: Невероятное путешествие [1992, DVDRip/AVC] || big1987
Writing library : x264 core 122 r2184 5c85e0a
Encoding settings : cabac=1 / ref=9 / deblock=1:-3:-3 / analyse=0x3:0x133 / me=umh / subme=9 / psy=1 / psy_rd=1.00:0.20 / mixed_ref=1 / me_range=48 / chroma_me=1 / trellis=2 / 8x8dct=1 / cqm=0 / deadzone=21,11 / fast_pskip=0 / chroma_qp_offset=-3 / threads=6 / sliced_threads=0 / nr=0 / decimate=0 / interlaced=0 / bluray_compat=0 / constrained_intra=0 / bframes=10 / b_pyramid=2 / b_adapt=2 / b_bias=0 / direct=3 / weightb=1 / open_gop=0 / weightp=2 / keyint=240 / keyint_min=23 / scenecut=40 / intra_refresh=0 / rc_lookahead=60 / rc=2pass / mbtree=1 / bitrate=2271 / ratetol=1.0 / qcomp=0.60 / qpmin=0 / qpmax=69 / qpstep=4 / cplxblur=20.0 / qblur=0.5 / ip_ratio=1.40 / aq=1:1.00
Language : English
Default : Yes
Forced : No
Audio #1
ID : 2
Format : AC-3
Format/Info : Audio Coding 3
Mode extension : CM (complete main)
Format settings, Endianness : Big
Muxing mode : Header stripping
Codec ID : A_AC3
Duration : 1h 24mn
Bit rate mode : Constant
Bit rate : 192 Kbps
Channel(s) : 2 channels
Channel positions : Front: L R
Sampling rate : 48.0 KHz
Bit depth : 16 bits
Compression mode : Lossy
Stream size : 116 MiB (7%)
Title : MVO [AC3 2.0@192kbps]
Language : Russian
Default : Yes
Forced : No
Audio #2
ID : 3
Format : AC-3
Format/Info : Audio Coding 3
Mode extension : CM (complete main)
Format settings, Endianness : Big
Muxing mode : Header stripping
Codec ID : A_AC3
Duration : 1h 24mn
Bit rate mode : Constant
Bit rate : 192 Kbps
Channel(s) : 2 channels
Channel positions : Front: L R
Sampling rate : 48.0 KHz
Bit depth : 16 bits
Compression mode : Lossy
Stream size : 116 MiB (7%)
Title : AVO. Горчаков
Language : Russian
Default : No
Forced : No
Audio #3
ID : 4
Format : AC-3
Format/Info : Audio Coding 3
Format profile : Dolby Digital
Mode extension : CM (complete main)
Format settings, Endianness : Big
Muxing mode : Header stripping
Codec ID : A_AC3
Duration : 1h 24mn
Bit rate mode : Constant
Bit rate : 192 Kbps
Channel(s) : 2 channels
Channel positions : Front: L R
Sampling rate : 48.0 KHz
Bit depth : 16 bits
Compression mode : Lossy
Stream size : 116 MiB (7%)
Title : Original
Language : English
Default : No
Forced : No
Text #1
ID : 5
Format : UTF-8
Codec ID : S_TEXT/UTF8
Codec ID/Info : UTF-8 Plain Text
Title : Русские
Language : Russian
Default : No
Forced : No
Text #2
ID : 6
Format : UTF-8
Codec ID : S_TEXT/UTF8
Codec ID/Info : UTF-8 Plain Text
Title : Английские
Language : English
Default : No
Forced : No

Моё мнение о фильме

Отличный фильм для семейного просмотра с детьми.
Рекомендую.
Дорога домой 2: Затерянные в Сан-Франциско Homeward Bound II: Lost in San Francisco (1996) DVDRip [H.264]
Скриншоты:


Время раздачи: С 10:00 до 17:00 (мск)

[Цитировать]



Показать сообщения:    

Текущее время: 30-Апр 11:05

Часовой пояс: UTC + 6


Вы не можете начинать темы
Вы не можете отвечать на сообщения
Вы не можете редактировать свои сообщения
Вы не можете удалять свои сообщения
Вы не можете голосовать в опросах
Вы не можете прикреплять файлы к сообщениям
Вы не можете скачивать файлы

!ВНИМАНИЕ!
Сайт не предоставляет электронные версии произведений, а занимается лишь коллекционированием и каталогизацией ссылок, присылаемых и публикуемых на форуме нашими читателями. Если вы являетесь правообладателем какого-либо представленного материала и не желаете, чтобы ссылка на него находилась в нашем каталоге, свяжитесь с нами, и мы незамедлительно удалим ее. Файлы для обмена на трекере предоставлены пользователями сайта, и администрация не несет ответственности за их содержание. Просьба не заливать файлы, защищенные авторскими правами, а также файлы нелегального содержания!