[ Сегодня идет свободное скачивание без начисления Download ]


Статистика раздачи
Нет
 
   
 
Top  
 
 
-Американская Мэри / American Mary (2012) HDRip
«Внешность Все»
- Русское название: Американская Мэри
Оригинальное название: American Mary
Год выпуска: 2012
Производство: Канада | Twisted Twins Productions
Жанр: Ужасы, Триллер
Перевод: Двуголосый закадровый, любительский [den904 и DeadSno]
Субтитры: Отсутствуют-Дата мировой премьеры: 27 августа 2012-Режиссер: Джен Соска, Сильвия Соска-Продюсеры: Джон А. Кертис, Ивэн Тайлор, Джен Соска-Актеры: Кэтрин Изабель, Антонио Цупо, Тристан Риск, Дэвид Ловгрен, Паула Линдберг, Клэй Ст. Томас, Джон Эммет Трэйси, Твэн Холлидэй, Нельсон Вонг, Сильвия Соска ...-Описание фильма:
Фильм расскажет нам историю Мэри Мэнсон, которая работает в салоне, специализирующемся на модификации тела человека. Вскоре она понимает что ей нравится уродовать тела и клиентов салона ей становится мало. Она решает уродовать людей на свой вкус, без их согласия.-
Продолжительность: 01:38:12
Качество видео: HDRip
Видеокодек: MPEG-4 AVC/H.264
Битрейт видео: ~ 2153 Кбит/сек
Размер кадра: 1024 x 432 (2.370) at 23.976 fps : 0.203 Bit/Pixel
Аудиокодек: AC3 5.1
Аудио #1: AC3 448 Кбит/сек (6ch), 48,0 КГц, 16 бит [Русский, DVO]
Аудио #2: AC3 448 Кбит/сек (6ch), 48,0 КГц, 16 бит [Английский]
Дополнительно: Сохранены оригинальные чаптеры как на Blu-ray
Релиз :

Трейлер / Ролик

[youtube]http://www.youtube.com/v/0zua8vbLLqU&fs=1[/youtube]

MediaInfo:

Полное имя                               : F:\Фильмы\American.Mary.2012.L2.HDRip.2.18GB.NNM-CLUB.mkv
Формат                                   : Matroska
Версия формата                           : Version 2
Размер файла                             : 2,17 Гбайт
Продолжительность                        : 1 ч. 42 м.
Общий поток                              : 3041 Кбит/сек
Название фильма                          : -=NNM-CLUB.RU=-
Дата кодирования                         : UTC 2013-02-10 15:53:34
Программа кодирования                    : mkvmerge v2.9.9 ('Tutu') built on Nov 25 2009 21:13:32
Библиотека кодирования                   : libebml v0.7.9 + libmatroska v0.8.1
Видео
Идентификатор                            : 1
Формат                                   : AVC
Формат/Информация                        : Advanced Video Codec
Профиль формата                          : [url=mailto:High@L4.1]High@L4.1[/url]
Параметр CABAC формата                   : Да
Параметр ReFrames формата                : 10 кадров
Идентификатор кодека                     : V_MPEG4/ISO/AVC
Продолжительность                        : 1 ч. 42 м.
Битрейт                                  : 2153 Кбит/сек
Ширина                                   : 1024 пикселя
Высота                                   : 432 пикселя
Соотношение сторон                       : 2,40:1
Режим частоты кадров                     : Постоянный
Частота кадров                           : 23,976 кадра/сек
Цветовое пространство                    : YUV
Субдискретизация насыщенности            : 4:2:0
Битовая глубина                          : 8 бит
Тип развёртки                            : Прогрессивная
Бит/(Пиксели*Кадры)                      : 0.203
Размер потока                            : 1,49 Гбайт (69%)
Заголовок                                : American.Mary.2012.L2.HDRip.2.18GB.NNM-CLUB.GIU
Библиотека кодирования                   : x264 core 129 r2230 1cffe9f
Настройки программы                      : cabac=1 / ref=10 / deblock=1:-3:-3 / analyse=0x3:0x113 / me=umh / subme=11 / psy=1 / psy_rd=1.00:0.25 / mixed_ref=1 / me_range=48 / chroma_me=1 / trellis=2 / 8x8dct=1 / cqm=0 / deadzone=21,11 / fast_pskip=1 / chroma_qp_offset=-4 / threads=12 / lookahead_threads=2 / sliced_threads=0 / nr=0 / decimate=1 / interlaced=0 / bluray_compat=0 / constrained_intra=0 / bframes=8 / b_pyramid=2 / b_adapt=2 / b_bias=0 / direct=3 / weightb=1 / open_gop=0 / weightp=2 / keyint=240 / keyint_min=23 / scenecut=40 / intra_refresh=0 / rc_lookahead=40 / rc=2pass / mbtree=1 / bitrate=2153 / ratetol=1.0 / qcomp=0.80 / qpmin=10 / qpmax=51 / qpstep=4 / cplxblur=20.0 / qblur=0.5 / ip_ratio=1.40 / aq=1:1.00
Default                                  : Нет
Forced                                   : Нет
Аудио #1
Идентификатор                            : 2
Формат                                   : AC-3
Формат/Информация                        : Audio Coding 3
Расширение режима                        : CM (complete main)
Параметр Endianness формата              : Big
Идентификатор кодека                     : A_AC3
Продолжительность                        : 1 ч. 42 м.
Вид битрейта                             : Постоянный
Битрейт                                  : 448 Кбит/сек
Каналы                                   : 6 каналов
Расположение каналов                     : Front: L C R, Side: L R, LFE
Частота                                  : 48,0 КГц
Битовая глубина                          : 16 бит
Метод сжатия                             : С потерями
Размер потока                            : 328 Мбайт (15%)
Заголовок                                : AC3.448.Kbps (6ch) [den904, DeadSno] Russian
Язык                                     : Russian
Default                                  : Да
Forced                                   : Нет
Аудио #2
Идентификатор                            : 3
Формат                                   : AC-3
Формат/Информация                        : Audio Coding 3
Расширение режима                        : CM (complete main)
Параметр Endianness формата              : Big
Идентификатор кодека                     : A_AC3
Продолжительность                        : 1 ч. 42 м.
Вид битрейта                             : Постоянный
Битрейт                                  : 448 Кбит/сек
Каналы                                   : 6 каналов
Расположение каналов                     : Front: L C R, Side: L R, LFE
Частота                                  : 48,0 КГц
Битовая глубина                          : 16 бит
Метод сжатия                             : С потерями
Размер потока                            : 328 Мбайт (15%)
Заголовок                                : AC3.448.Kbps (6ch) English
Язык                                     : English
Default                                  : Нет
Forced                                   : Нет
Меню
00:00:00.000                             : en:Chapter 00
00:10:13.446                             : en:Chapter 01
00:21:37.170                             : en:Chapter 02
00:30:40.004                             : en:Chapter 03
00:39:10.139                             : en:Chapter 04
00:50:33.739                             : en:Chapter 05
01:02:46.471                             : en:Chapter 06
01:14:45.772                             : en:Chapter 07
01:26:42.906                             : en:Chapter 08
01:37:55.494                             : en:Chapter 09

x264 iNFO

x264 [info]: frame I:979 Avg QP:14.03 size: 64185
x264 [info]: frame P:27920 Avg QP:16.14 size: 19954
x264 [info]: frame B:118413 Avg QP:16.57 size: 8661
x264 [info]: consecutive B-frames: 1.3% 1.1% 4.0% 13.3% 14.2% 47.1% 4.2% 13.9% 1.0%
Скриншоты:



Время раздачи: 24/7 (до 10 скачавших)

[Цитировать]



Показать сообщения:    

Текущее время: 07-Дек 13:38

Часовой пояс: UTC + 3


Вы не можете начинать темы
Вы не можете отвечать на сообщения
Вы не можете редактировать свои сообщения
Вы не можете удалять свои сообщения
Вы не можете голосовать в опросах
Вы не можете прикреплять файлы к сообщениям
Вы не можете скачивать файлы

!ВНИМАНИЕ!
Сайт не предоставляет электронные версии произведений, а занимается лишь коллекционированием и каталогизацией ссылок, присылаемых и публикуемых на форуме нашими читателями. Если вы являетесь правообладателем какого-либо представленного материала и не желаете, чтобы ссылка на него находилась в нашем каталоге, свяжитесь с нами, и мы незамедлительно удалим ее. Файлы для обмена на трекере предоставлены пользователями сайта, и администрация не несет ответственности за их содержание. Просьба не заливать файлы, защищенные авторскими правами, а также файлы нелегального содержания!