[ Сегодня идет свободное скачивание без начисления Download ]


Статистика раздачи
Нет
 
   
 
Top  
 
 
Любовь с акцентом Год выпуска: 2012
Страна: Россия
Производство: апрельМИГпикчерс, Независимый Кинопроект
Жанр: комедия, приключения
Режиссер: Резо Гигинеишвили
В ролях: Светлана Бондарчук, Филипп Янковский, Надежда Михалкова, Анна Михалкова, Никита Ефремов, Артур Смольянинов, Ирина Пегова, Ольга Баблуани, Дута Схиртладзе, Георгий Кипшидзе
Перевод: Не требуется
Субтитры: Отсутствуют
Описание: «Любовь с акцентом» - фильм о настоящей любви: яркой и страстной, зрелой и беспощадной, наивной и нелепой, счастливой и не очень. Истории героев сплетаются в одну большую ироничную комедию о том, что настоящая любовь не знает ни границ, ни законов, ни национальностей. Романтические приключения таких разных и непохожих друг на друга героев под аккомпанемент завораживающей южной природы.
[kp]615809[/kp] [imdb]tt2400284[/imdb]
Качество: DVDRip
Продолжительность: 01:39:40.640 (149516 frames)
Формат: AVI
Видео кодек: XviD
Аудио кодек: AC3
Видео: 720x304 (2.37:1), 25 fps, XviD build 50 ~1634 kbps avg, 0.30 bit/pixel
Аудио: 48 kHz, AC3 Dolby Digital, 3/2 (L,C,R,l,r) + LFE ch, ~448 kbps
Премьера (мир): 11 октября 2012
Премьера (РФ): 11 октября 2012, «Централ Партнершип»

Media Info

Format                                   : AVI
Format/Info                              : Audio Video Interleave
File size                                : 1.46 GiB
Duration                                 : 1h 39mn
Overall bit rate                         : 2 092 Kbps
Movie name                               : Ljubov.s.akcentom.2012.O.DVDRip.IRONCLUB
Director                                 : IRONCLUB
Genre                                    : Adventure / Comedy
Writing application                      : VirtualDubMod 1.5.10.2 (build 2540/release)
Original source form/Name                : Movie
Copyright                                : http://ironclub.tv/
Video
ID                                       : 0
Format                                   : MPEG-4 Visual
Format profile                           : Advanced Simple@L5
Format settings, BVOP                    : 2
Format settings, QPel                    : No
Format settings, GMC                     : No warppoints
Format settings, Matrix                  : Custom
Codec ID                                 : XVID
Codec ID/Hint                            : XviD
Duration                                 : 1h 39mn
Bit rate                                 : 1 635 Kbps
Width                                    : 720 pixels
Height                                   : 304 pixels
Display aspect ratio                     : 2.35:1
Frame rate                               : 25.000 fps
Color space                              : YUV
Chroma subsampling                       : 4:2:0
Bit depth                                : 8 bits
Scan type                                : Progressive
Compression mode                         : Lossy
Bits/(Pixel*Frame)                       : 0.299
Stream size                              : 1.14 GiB (78%)
Writing library                          : XviD 1.2.1 (UTC 2008-12-04)
Audio
ID                                       : 1
Format                                   : AC-3
Format/Info                              : Audio Coding 3
Mode extension                           : CM (complete main)
Format settings, Endianness              : Big
Codec ID                                 : 2000
Duration                                 : 1h 39mn
Bit rate mode                            : Constant
Bit rate                                 : 448 Kbps
Channel(s)                               : 6 channels
Channel positions                        : Front: L C R, Side: L R, LFE
Sampling rate                            : 48.0 KHz
Bit depth                                : 16 bits
Compression mode                         : Lossy
Stream size                              : 319 MiB (21%)
Alignment                                : Split accross interleaves
Interleave, duration                     : 40 ms (1.00 video frame)
Interleave, preload duration             : 500 ms

Скриншоты

[Цитировать]

Топик был перенесен из форума Новинки кинопроката в форум Комедия
Henkok



Показать сообщения:    

Текущее время: 27-Июн 01:15

Часовой пояс: UTC + 6


Вы не можете начинать темы
Вы не можете отвечать на сообщения
Вы не можете редактировать свои сообщения
Вы не можете удалять свои сообщения
Вы не можете голосовать в опросах
Вы не можете прикреплять файлы к сообщениям
Вы не можете скачивать файлы

!ВНИМАНИЕ!
Сайт не предоставляет электронные версии произведений, а занимается лишь коллекционированием и каталогизацией ссылок, присылаемых и публикуемых на форуме нашими читателями. Если вы являетесь правообладателем какого-либо представленного материала и не желаете, чтобы ссылка на него находилась в нашем каталоге, свяжитесь с нами, и мы незамедлительно удалим ее. Файлы для обмена на трекере предоставлены пользователями сайта, и администрация не несет ответственности за их содержание. Просьба не заливать файлы, защищенные авторскими правами, а также файлы нелегального содержания!