[ Сегодня идет свободное скачивание без начисления Download ]


Статистика раздачи
Нет
 
   
 
Top  
 
 
-Гипнотизер / Hypnotisoren (2012) HDRip- Русское название: Гипнотизер
Оригинальное название: The hypnotist
Год выпуска: 2012
Выпущено: Швеция / Filmpool Nord, Sonet Film, Svensk Filmindustri (SF) AB
Жанр: Триллер, Драма, Криминал-Описание фильма:
В пригороде Стокгольма в раздевалке спортивного клуба найден зверски убитый мужчина. Позже в его доме обнаруживают зарубленных с чудовищной жестокостью жену и маленькую дочь. Похоже, убийца задался целью вырезать всю семью, однако тяжело раненный сын выжил. Комиссар уголовной полиции Йона Линна узнает, что в живых остался еще один член семьи — старшая сестра мальчика. Он понимает: необходимо найти девушку до того, как это сделает убийца. Чтобы поскорее допросить единственного свидетеля, Иона Линна связывается с врачом Эриком Марией Барком и убеждает его загипнотизировать мальчика. Только так можно получить описание преступника. Эрик нарушает свое давнее обещание отказаться от занятий гипнозом. И цепочка невероятных событий начинает неумолимо разматываться…-Режиссер: Лассе Халльстрём
Продюсер: Вордже Ханссон, Бертил Олссон, Питер Поссне
Актеры: Тобиаш Зиллиакус, Микаэл Персбрандт, Лена Улин, Хелена аф Сандеберг, Оскар Петтерссон, Анна Азкарате, Йонатан Бёкман, Ян Вальдекранц, Ева Меландер, Горан Торелл-Продолжительность: 02:01:22
Перевод: Одноголосый закадровый, любительский [den904]- -Дата мировой премьеры: 28 сентября 2012--Видеокодек: MPEG-4 AVC/H.264
Битрейт видео: ~2660 kb/s
Размер кадра: 1024х424
Качество видео: HDRip
Аудио#1: Русский: AC3, 2 ch, 192 Кбит/с
Аудио#2: Шведский: AC3, 384 kb/s (6 ch)

MediaInfo

Общее
Уникальный идентификатор : 196999084592161480751977793270236951944 (0x9434A4C32F71D9898BF52943B399B588)
Полное имя : D:\Торрент раздача\Gipnotizer.2012.x264.HDRip.(AVC).mkv
Формат : Matroska
Версия формата : Version 1
Размер файла : 2,73 Гбайт
Продолжительность : 2 ч. 1 м.
Общий поток : 3215 Кбит/сек
Дата кодирования : UTC 2013-02-10 10:06:20
Программа кодирования : mkvmerge v2.1.0 ('Another Place To Fall') built on Aug 19 2007 13:40:07
Библиотека кодирования : libebml v0.7.7 + libmatroska v0.8.1
Видео
Идентификатор : 1
Формат : AVC
Формат/Информация : Advanced Video Codec
Профиль формата : [email protected]
Параметр CABAC формата : Да
Параметр ReFrames формата : 8 кадров
Идентификатор кодека : V_MPEG4/ISO/AVC
Битрейт : 2660 Кбит/сек
Ширина : 1024 пикселя
Высота : 424 пикселя
Соотношение сторон : 2,40:1
Режим частоты кадров : Переменный
Частота кадров в оригинале : 24,000 кадра/сек
Цветовое пространство : YUV
Субдискретизация насыщенности : 4:2:0
Битовая глубина : 8 бит
Тип развёртки : Прогрессивная
Бит/(Пиксели*Кадры) : 0.255
Библиотека кодирования : x264 core 115 r1937 aa21558
Настройки программы : cabac=1 / ref=8 / deblock=1:-2:-2 / analyse=0x3:0x113 / me=umh / subme=8 / psy=1 / psy_rd=1.00:0.10 / mixed_ref=0 / me_range=32 / chroma_me=1 / trellis=2 / 8x8dct=1 / cqm=0 / deadzone=21,11 / fast_pskip=1 / chroma_qp_offset=-3 / threads=6 / sliced_threads=0 / nr=0 / decimate=1 / interlaced=0 / bluray_compat=0 / constrained_intra=0 / bframes=8 / b_pyramid=2 / b_adapt=2 / b_bias=0 / direct=3 / weightb=1 / open_gop=0 / weightp=0 / keyint=240 / keyint_min=23 / scenecut=40 / intra_refresh=0 / rc_lookahead=30 / rc=2pass / mbtree=1 / bitrate=2660 / ratetol=1.0 / qcomp=0.60 / qpmin=15 / qpmax=47 / qpstep=3 / cplxblur=20.0 / qblur=0.5 / ip_ratio=1.40 / aq=1:1.10
Язык : English
Default : Да
Forced : Нет
Аудио #1
Идентификатор : 2
Формат : AC-3
Формат/Информация : Audio Coding 3
Расширение режима : CM (complete main)
Параметр Endianness формата : Big
Идентификатор кодека : A_AC3
Продолжительность : 2 ч. 1 м.
Вид битрейта : Постоянный
Битрейт : 192 Кбит/сек
Каналы : 2 канала
Расположение каналов : Front: L R
Частота : 48,0 КГц
Битовая глубина : 16 бит
Метод сжатия : С потерями
Размер потока : 167 Мбайт (6%)
Заголовок : Любительский одноголосый (den904)
Язык : Russian
Default : Да
Forced : Нет
Аудио #2
Идентификатор : 3
Формат : AC-3
Формат/Информация : Audio Coding 3
Расширение режима : CM (complete main)
Параметр Endianness формата : Big
Идентификатор кодека : A_AC3
Продолжительность : 2 ч. 1 м.
Вид битрейта : Постоянный
Битрейт : 384 Кбит/сек
Каналы : 6 каналов
Расположение каналов : Front: L C R, Side: L R, LFE
Частота : 48,0 КГц
Битовая глубина : 16 бит
Метод сжатия : С потерями
Размер потока : 333 Мбайт (12%)
Заголовок : Оригинал
Язык : Swedish
Default : Нет
Forced : Нет
Скриншоты:
Время раздачи: 09:00 - 23:00 (МСК)

[Цитировать]



Показать сообщения:    

Текущее время: 06-Дек 17:14

Часовой пояс: UTC + 3


Вы не можете начинать темы
Вы не можете отвечать на сообщения
Вы не можете редактировать свои сообщения
Вы не можете удалять свои сообщения
Вы не можете голосовать в опросах
Вы не можете прикреплять файлы к сообщениям
Вы не можете скачивать файлы

!ВНИМАНИЕ!
Сайт не предоставляет электронные версии произведений, а занимается лишь коллекционированием и каталогизацией ссылок, присылаемых и публикуемых на форуме нашими читателями. Если вы являетесь правообладателем какого-либо представленного материала и не желаете, чтобы ссылка на него находилась в нашем каталоге, свяжитесь с нами, и мы незамедлительно удалим ее. Файлы для обмена на трекере предоставлены пользователями сайта, и администрация не несет ответственности за их содержание. Просьба не заливать файлы, защищенные авторскими правами, а также файлы нелегального содержания!