[ Сегодня идет свободное скачивание без начисления Download ]


Статистика раздачи
Нет
 
   
 
 
 
-Потерявшиеся / Lost things (2003) DVDRip- Страна: Австралия
Русское название: Потерявшиеся
Оригинальное название: Lost things
Год выпуска: 2003
Жанр: Мистика, Триллер
Описание фильма:
Компания молодых людей отправляется к морю. Однако место, выбранное для купания по настоянию одной из девушек, - безлюдный заброшенный пляж - у остальных вызывает тревогу. Им кажется, они уже здесь были и стали свидетелями каких-то ужасных событий. Внезапно появившийся серфингист предупреждает отдыхающих, что на этом пляже погибло три человека, и советует уехать. Однако из чувства противоречия ребята остаются. Вечером, когда компания собирается поужинать, на огонек заходит знакомый серфингист. Одному из парней начинает казаться, что в его руке нож, и он убивает гостя. Зарыв труп, ребята решают срочно бежать, но одна из девушек, чье поведение с самого начала было странным, протестует против такого решения. Кажется, она посвящена в какую-то тайну...
Режиссер: Мартин Мерфи / Martin Murphy
Актеры: Леон Форд, Чарли Гарбер, Ленка Крипач, Алекс Вон, Стив ле Маркванд
Продолжительность: 01:20:17
Перевод: Многоголосый закадровый

Качество: DVDRip
Формат: AVI
Видео: XviD, 640x480 (4:3), 25 fps, 1018 Kbps, Bits/(Pixel*Frame): 0.133
Аудио: AC3, 192 Kbps, 2 channel, Front: L R, 48.0 KHz, 16 bits, Lossy, Русский, Многоголосый закадровый
Оригинальная дорожка: нет
Субтитры: нет
Сэмпл: Ссылка

Mediainfo

General
Complete name : Потерявшиеся. Lost things. 2003. (непростой мист. триллер).avi
Format : AVI
Format/Info : Audio Video Interleave
File size : 700 MiB
Duration : 1h 20mn
Overall bit rate : 1 220 Kbps
Writing library : VirtualDub-MPEG2 build 24600/release
Video
ID : 0
Format : MPEG-4 Visual
Format profile : Advanced [email protected]
Format settings, BVOP : 2
Format settings, QPel : No
Format settings, GMC : No warppoints
Format settings, Matrix : Default (H.263)
Muxing mode : Packed bitstream
Codec ID : XVID
Codec ID/Hint : XviD
Duration : 1h 20mn
Bit rate : 1 018 Kbps
Width : 640 pixels
Height : 480 pixels
Display aspect ratio : 4:3
Frame rate : 25.000 fps
Color space : YUV
Chroma subsampling : 4:2:0
Bit depth : 8 bits
Scan type : Progressive
Compression mode : Lossy
Bits/(Pixel*Frame) : 0.133
Stream size : 585 MiB (83%)
Writing library : XviD 1.1.2 (UTC 2006-11-01)
Audio
ID : 1
Format : AC-3
Format/Info : Audio Coding 3
Mode extension : CM (complete main)
Format settings, Endianness : Big
Codec ID : 2000
Duration : 1h 20mn
Bit rate mode : Constant
Bit rate : 192 Kbps
Channel(s) : 2 channels
Channel positions : Front: L R
Sampling rate : 48.0 KHz
Bit depth : 16 bits
Compression mode : Lossy
Stream size : 110 MiB (16%)
Alignment : Aligned on interleaves
Interleave, duration : 40 ms (1.00 video frame)
Interleave, preload duration : 512 ms

Предупреждение о качестве видео!

Качество видео в данном релизе - "ниже плинтуса". Но, как говорится, "чем богаты".

Моё мнение о фильме

На удивление дешево снятый фильм. И при этом интересная история в духе "Треугольника" и "Сирены". Всё держится на игре актеров, намеках, нюансах, полутонах. Спецэффектов - "0".
Любителям поразмыслить над фильмом как во время просмотра, так и после.
Скриншоты:


Время раздачи: С 10:00 до 17:00 (мск)

[Цитировать]



Показать сообщения:    

Текущее время: 06-Дек 21:02

Часовой пояс: UTC + 3


Вы не можете начинать темы
Вы не можете отвечать на сообщения
Вы не можете редактировать свои сообщения
Вы не можете удалять свои сообщения
Вы не можете голосовать в опросах
Вы не можете прикреплять файлы к сообщениям
Вы не можете скачивать файлы

!ВНИМАНИЕ!
Сайт не предоставляет электронные версии произведений, а занимается лишь коллекционированием и каталогизацией ссылок, присылаемых и публикуемых на форуме нашими читателями. Если вы являетесь правообладателем какого-либо представленного материала и не желаете, чтобы ссылка на него находилась в нашем каталоге, свяжитесь с нами, и мы незамедлительно удалим ее. Файлы для обмена на трекере предоставлены пользователями сайта, и администрация не несет ответственности за их содержание. Просьба не заливать файлы, защищенные авторскими правами, а также файлы нелегального содержания!