[ Сегодня идет свободное скачивание без начисления Download ]


Статистика раздачи
Нет
 
   
 
 
 
-Кочевники / Nomads (1986) DVDRip- Страна: США
Русское название: Кочевники
Оригинальное название: Nomads
Год выпуска: 1986
Жанр: Мистика, Ужасы, Триллер
Описание фильма:
Французский ученый-антрополог Жан Шарль Помье, долгие годы скитавшийся в научных экспедициях на севере, и его жена Ники поселились в Лос-Анджелесе. Не успели они распаковать вещи и порадоваться, наконец, прелестям цивилизованной жизни, как Жана начала преследовать банда панков.
Однако это были не просто маргиналы в коже, цепях и на мотоциклах, а злые духи северных народов, принявшие человеческий облик. И цель у них куда более страшная и жестокая, чем жалкая жизнь одного ученого…
Режиссер: Джон МакТирнан / John McTiernan
Актеры: Пирс Броснан (Pierce Brosnan), Лесли-Энн Даун (Lesley-Anne Down), Анна Мария Монтичелли (Anna Maria Monticelli), Адам Ант (Adam Ant)
Продолжительность: 01:28:55
Перевод: Двухголосный закадровый

Качество: DVDRip
Формат: AVI
Видео: Xvid, 720x416, 25.00fps, 2004Kbps, 0.268 bit/pixel
Аудио: AC3, 2 channels, Front: L R stereo, 192Kbps, Русский, Двухголосный закадровый
Оригинальная дорожка: нет
Субтитры: нет
Сэмпл: Ссылка

Mediainfo

General
Complete name : Кочевники. Nomads. 1986. (мист. триллер от John McTiernan). DVDRip.avi
Format : AVI
Format/Info : Audio Video Interleave
File size : 1.37 GiB
Duration : 1h 28mn
Overall bit rate : 2 203 Kbps
Writing application : VirtualDubMod 1.5.4.1 (build 2178/release)
Writing library : VirtualDubMod build 2178/release
Video
ID : 0
Format : MPEG-4 Visual
Format profile : Advanced [email protected]
Format settings, BVOP : No
Format settings, QPel : No
Format settings, GMC : No warppoints
Format settings, Matrix : Custom
Codec ID : XVID
Codec ID/Hint : XviD
Duration : 1h 28mn
Bit rate : 2 004 Kbps
Width : 720 pixels
Height : 416 pixels
Display aspect ratio : 1.731
Frame rate : 25.000 fps
Color space : YUV
Chroma subsampling : 4:2:0
Bit depth : 8 bits
Scan type : Progressive
Compression mode : Lossy
Bits/(Pixel*Frame) : 0.268
Stream size : 1.25 GiB (91%)
Writing library : XviD 1.2.1 (UTC 2008-12-04)
Audio
ID : 1
Format : AC-3
Format/Info : Audio Coding 3
Mode extension : CM (complete main)
Format settings, Endianness : Big
Codec ID : 2000
Duration : 1h 28mn
Bit rate mode : Constant
Bit rate : 192 Kbps
Channel(s) : 2 channels
Channel positions : Front: L R
Sampling rate : 48.0 KHz
Bit depth : 16 bits
Compression mode : Lossy
Stream size : 122 MiB (9%)
Alignment : Split accross interleaves
Interleave, duration : 96 ms (2.40 video frames)
Interleave, preload duration : 96 ms

Моё мнение о фильме

Один из ранних фильмов режиссёра МакТирнана. С участием молодого Пирса Броснана в необычном для него амплуа. Для них обоих жанр этого фильма не очень обычен.
Для меня этого было достаточно чтобы посмотреть.
Скриншоты:


Время раздачи: С 10:00 до 17:00 (мск)

[Цитировать]



Показать сообщения:    

Текущее время: 06-Дек 05:59

Часовой пояс: UTC + 3


Вы не можете начинать темы
Вы не можете отвечать на сообщения
Вы не можете редактировать свои сообщения
Вы не можете удалять свои сообщения
Вы не можете голосовать в опросах
Вы не можете прикреплять файлы к сообщениям
Вы не можете скачивать файлы

!ВНИМАНИЕ!
Сайт не предоставляет электронные версии произведений, а занимается лишь коллекционированием и каталогизацией ссылок, присылаемых и публикуемых на форуме нашими читателями. Если вы являетесь правообладателем какого-либо представленного материала и не желаете, чтобы ссылка на него находилась в нашем каталоге, свяжитесь с нами, и мы незамедлительно удалим ее. Файлы для обмена на трекере предоставлены пользователями сайта, и администрация не несет ответственности за их содержание. Просьба не заливать файлы, защищенные авторскими правами, а также файлы нелегального содержания!