[ Сегодня идет свободное скачивание без начисления Download ]


Статистика раздачи
Нет
 
   
 
 
 
-Книга Теней / Malefique (2002) DVDRip [H.264]- Страна: Франция
Русское название: Книга Теней
Оригинальное название: Malefique
Год выпуска: 2002
Жанр: Мистика, Ужасы
Описание фильма:
В тюремной камере — четверо заключенных: Каррер, директор фирмы, обвиненный в мошенничестве; Маркус, транссексуал, мечтающий о смене пола; умственно неполноценный по прозвищу Маргаритка; и Лассаль, пожилой интеллигент, обвиненный в убийстве собственной жены.
Однажды, за вывалившимся из стены кирпичиком, сокамерники находят старую книгу: дневник заключенного по имени Данвер, сидевшего в их камере в начале века. В дневнике обнаруживаются магические заклинания, которые могут помочь арестантам бежать из тюрьмы.
Но вскоре после находки в камере начинает разворачиваться цепь жутких и необъяснимых событий…
Режиссер: Эрик Валетт / Eric Valette
Актеры: Жеральд Ларош, Филипп Лоденбаш, Кловис Корнийяк, Димитри Рато, Дидье Бенюро, Фелисия Массони, Джефри Кэри, Поль-Александр Бардела, Борис Луц, Нельсон Журдан
Продолжительность: 01:26:20
Перевод: Многоголосый закадровый

Качество: DVDRip (видео взято с этой раздачи: Книга теней / Malefique (2002) [H.264] DVDRip)
Формат: MKV
Видео: x264, 720x400 (16:9), 25.0 fps, 2 947 Kbps, Bits/(Pixel*Frame): 0.409
Аудио 1: AC-3, 448 Kbps, 6 channels, Front: L C R, Side: L R, LFE, Русский, Многоголосый закадровый
Аудио 2: AC-3, 448 Kbps, 6 channels, Front: L C R, Side: L R, LFE, Original, French
Субтитры: Русские
Навигация по главам: нет
Сэмпл: Ссылка

Mediainfo

General
Complete name : Книга Теней. Malefique. 2002. (Франция, хор. мист. триллер). DVDRip-AVC. by Johnny_k.mkv
Format : Matroska
Format version : Version 4 / Version 2
File size : 2.32 GiB
Duration : 1h 26mn
Overall bit rate : 3 845 Kbps
Movie name : Книга теней / Malefique (2002) rip by Johnny_k
Encoded date : UTC 2013-02-10 10:09:37
Writing application : mkvmerge v6.0.0 ('Coming Up For Air') built on Jan 20 2013 09:52:00
Writing library : libebml v1.3.0 + libmatroska v1.4.0
Video
ID : 1
Format : AVC
Format/Info : Advanced Video Codec
Format profile : High@L3.1
Format settings, CABAC : Yes
Format settings, ReFrames : 16 frames
Codec ID : V_MPEG4/ISO/AVC
Duration : 1h 26mn
Bit rate : 2 947 Kbps
Width : 720 pixels
Height : 400 pixels
Display aspect ratio : 16:9
Frame rate mode : Constant
Frame rate : 25.000 fps
Color space : YUV
Chroma subsampling : 4:2:0
Bit depth : 8 bits
Scan type : Progressive
Bits/(Pixel*Frame) : 0.409
Stream size : 1.73 GiB (75%)
Title : Книга теней / Malefique (2002). DVDRip-AVC by Johnny_k
Writing library : x264 core 120 r2164 da19765
Encoding settings : cabac=1 / ref=16 / deblock=1:-1:-1 / analyse=0x3:0x133 / me=tesa / subme=11 / psy=1 / psy_rd=1.00:0.15 / mixed_ref=1 / me_range=24 / chroma_me=1 / trellis=2 / 8x8dct=1 / cqm=0 / deadzone=21,11 / fast_pskip=0 / chroma_qp_offset=-3 / threads=12 / sliced_threads=0 / nr=0 / decimate=1 / interlaced=0 / bluray_compat=0 / constrained_intra=0 / bframes=16 / b_pyramid=2 / b_adapt=2 / b_bias=0 / direct=3 / weightb=1 / open_gop=0 / weightp=2 / keyint=250 / keyint_min=25 / scenecut=40 / intra_refresh=0 / rc_lookahead=60 / rc=2pass / mbtree=1 / bitrate=2947 / ratetol=1.0 / qcomp=0.60 / qpmin=0 / qpmax=69 / qpstep=4 / cplxblur=20.0 / qblur=0.5 / ip_ratio=1.40 / aq=1:1.00
Language : French
Default : Yes
Forced : No
Audio #1
ID : 2
Format : AC-3
Format/Info : Audio Coding 3
Mode extension : CM (complete main)
Format settings, Endianness : Big
Codec ID : A_AC3
Duration : 1h 26mn
Bit rate mode : Constant
Bit rate : 448 Kbps
Channel(s) : 6 channels
Channel positions : Front: L C R, Side: L R, LFE
Sampling rate : 48.0 KHz
Bit depth : 16 bits
Compression mode : Lossy
Stream size : 277 MiB (12%)
Title : MVO
Language : Russian
Default : Yes
Forced : No
Audio #2
ID : 3
Format : AC-3
Format/Info : Audio Coding 3
Mode extension : CM (complete main)
Format settings, Endianness : Big
Codec ID : A_AC3
Duration : 1h 26mn
Bit rate mode : Constant
Bit rate : 448 Kbps
Channel(s) : 6 channels
Channel positions : Front: L C R, Side: L R, LFE
Sampling rate : 48.0 KHz
Bit depth : 16 bits
Compression mode : Lossy
Stream size : 277 MiB (12%)
Title : Original
Language : French
Default : No
Forced : No
Text
ID : 4
Format : UTF-8
Codec ID : S_TEXT/UTF8
Codec ID/Info : UTF-8 Plain Text
Title : Русские
Language : Russian
Default : No
Forced : No

Моё мнение о фильме

Атмосферный фильм. Входа нет. Выхода нет. Безысходность.
Рекомендую посмотреть.
Скриншоты:


Время раздачи: С 10:00 до 17:00 (мск)

[Цитировать]



Показать сообщения:    

Текущее время: 10-Дек 02:10

Часовой пояс: UTC + 3


Вы не можете начинать темы
Вы не можете отвечать на сообщения
Вы не можете редактировать свои сообщения
Вы не можете удалять свои сообщения
Вы не можете голосовать в опросах
Вы не можете прикреплять файлы к сообщениям
Вы не можете скачивать файлы

!ВНИМАНИЕ!
Сайт не предоставляет электронные версии произведений, а занимается лишь коллекционированием и каталогизацией ссылок, присылаемых и публикуемых на форуме нашими читателями. Если вы являетесь правообладателем какого-либо представленного материала и не желаете, чтобы ссылка на него находилась в нашем каталоге, свяжитесь с нами, и мы незамедлительно удалим ее. Файлы для обмена на трекере предоставлены пользователями сайта, и администрация не несет ответственности за их содержание. Просьба не заливать файлы, защищенные авторскими правами, а также файлы нелегального содержания!