[ Сегодня идет свободное скачивание без начисления Download ]


Статистика раздачи
Нет
 
   
 
Top  
 
 
-Полицейский из Беверли-Хиллз 3 / Beverly Hills Cop III
«He's back!»- Русское название: Полицейский из Беверли-Хиллз 3
Оригинальное название: Beverly Hills Cop III
Год выпуска: 1994
Жанр: боевик, триллер, комедия, криминал
Страна: США-Описание фильма: После перерыва в семь лет полицейский из Детройта Аксель Фоули снова вынужден побывать у своих друзей в Беверли-Хиллз. Его приводят туда поиски убийцы любимого шефа.
В результате парк аттракционов «Мир чудес», где бандиты в жутком подполье печатали фальшивые доллары, стал ареной боевых действий, а наш герой отомстил убийцам, прославился и познакомился с очаровательной работницей парка.
Режиссёр: Джон Лэндис / John Landis
В ролях: Эдди Мёрфи (Det. Axel Foley), Джон Тенни (Levine), Джои Траволта (Giolito), Юджин Колльер (Leppert), Джимми Ортега (Rondell), Усон Илам (Pederson), Рэй Лайкинс (Nixon), Тим Гилберт (McKee), Рик Эйвери (Cline), Гилберт Р. Хилл (Insp. Douglas Todd), Dick Purtan (Detroit Disc Jockey), Фред Аспарагус (Bobby)-Продолжительность: 01:44:13
Перевод: профессиональный (многоголосый закадровый), профессиональный (многоголосый закадровый) (СТС)
Субтитры: нет-
MPAA: R - Лицам до 17 лет обязательно присутствие взрослого
Автор рипа: GuNNeR-Качество видео: BDRip [Blu-ray 1080p (custom)]
Формат: AVI
Видео: XviD, 688x384 (16:9), 23.976 fps, ~1421 kbps, 0.224 bpp
Аудио №1: Русский: AC3, 48 kHz, 3/2 (L,C,R,l,r) + LFE ch, 16 bit, 384 kbps
Аудио №2: Русский: AC3, 48 kHz, 2/0 (L, R), 16 bit, 192 kbps-

MediaInfo

General
Complete name : J:\torrents\Beverly Hills Cop III (1994)\Beverly.Hills.Cop.III.1994.BDRip.XviD.AC3.2xMVO.avi
Format : AVI
Format/Info : Audio Video Interleave
File size : 1.46 GiB
Duration : 1h 44mn
Overall bit rate : 2 011 Kbps
Writing application : VirtualDubMod 1.5.10.3 | www.virtualdub-fr.org || (build 2550/release)
Writing library : VirtualDubMod build 2550/release
Video
ID : 0
Format : MPEG-4 Visual
Format profile : Advanced Simple@L5
Format settings, BVOP : 2
Format settings, QPel : No
Format settings, GMC : No warppoints
Format settings, Matrix : Custom
Codec ID : XVID
Codec ID/Hint : XviD
Duration : 1h 44mn
Bit rate : 1 421 Kbps
Width : 688 pixels
Height : 384 pixels
Display aspect ratio : 16:9
Frame rate : 23.976 fps
Color space : YUV
Chroma subsampling : 4:2:0
Bit depth : 8 bits
Scan type : Progressive
Compression mode : Lossy
Bits/(Pixel*Frame) : 0.224
Stream size : 1.03 GiB (71%)
Writing library : XviD 65
Audio #1
ID : 1
Format : AC-3
Format/Info : Audio Coding 3
Mode extension : CM (complete main)
Codec ID : 2000
Duration : 1h 44mn
Bit rate mode : Constant
Bit rate : 384 Kbps
Channel(s) : 6 channels
Channel positions : Front: L C R, Side: L R, LFE
Sampling rate : 48.0 KHz
Bit depth : 16 bits
Compression mode : Lossy
Stream size : 286 MiB (19%)
Alignment : Split accross interleaves
Interleave, duration : 42 ms (1.00 video frame)
Interleave, preload duration : 500 ms
Audio #2
ID : 2
Format : AC-3
Format/Info : Audio Coding 3
Format profile : Dolby Digital
Mode extension : CM (complete main)
Codec ID : 2000
Duration : 1h 44mn
Bit rate mode : Constant
Bit rate : 192 Kbps
Channel(s) : 2 channels
Channel positions : Front: L R
Sampling rate : 48.0 KHz
Bit depth : 16 bits
Compression mode : Lossy
Stream size : 143 MiB (10%)
Alignment : Split accross interleaves
Interleave, duration : 42 ms (1.00 video frame)
Interleave, preload duration : 500 ms
- Время раздачи: круглосуточно (до 10ти скачавших)

[Цитировать]



Показать сообщения:    

Текущее время: 08-Дек 14:59

Часовой пояс: UTC + 3


Вы не можете начинать темы
Вы не можете отвечать на сообщения
Вы не можете редактировать свои сообщения
Вы не можете удалять свои сообщения
Вы не можете голосовать в опросах
Вы не можете прикреплять файлы к сообщениям
Вы не можете скачивать файлы

!ВНИМАНИЕ!
Сайт не предоставляет электронные версии произведений, а занимается лишь коллекционированием и каталогизацией ссылок, присылаемых и публикуемых на форуме нашими читателями. Если вы являетесь правообладателем какого-либо представленного материала и не желаете, чтобы ссылка на него находилась в нашем каталоге, свяжитесь с нами, и мы незамедлительно удалим ее. Файлы для обмена на трекере предоставлены пользователями сайта, и администрация не несет ответственности за их содержание. Просьба не заливать файлы, защищенные авторскими правами, а также файлы нелегального содержания!