[ Сегодня идет свободное скачивание без начисления Download ]


Статистика раздачи
Нет
 
   
 
Top  
 
 
-Расчет / The Clearing (2004) DVDRip- Русское название: Расчет
Оригинальное название: The Clearing
Год выпуска: 2004
Страна: США, Германия
Жанр: Триллер, Драма, Криминал-Описание фильма:
Уэйн и Эйлин Хэйес — образцовая американская семья. У них двое прекрасных детей и вполне успешный бизнес, который они поднимали вместе с нуля. Но жизнь уготовила супружеской паре суровое испытание. Однажды Уэйна похищают. Человек, спрятавший его в лесу, обычный обыватель Арнольд Мэк, находящийся на грани отчаяния и уставший от безденежья и нищеты, решил получить большой выкуп…-Режиссер: Питер Жан Брюгге
Продюсер: Питер Жан Брюгге, Йон Смит, Палмер Уэст
Актеры: Роберт Редфорд, Хелен Миррен, Уиллем Дефо, Алессандро Нивола, Мэтт Крэвен, Мелисса Сейджмиллер, Венди Крюсон, Ларри Пайн, Дайана Скаруид, Элизабет Руссо-Продолжительность: 01:30:38
Перевод: Многоголосый закадровый, профессиональный- -Дата мировой премьеры: 2 июля 2004
Дата выхода DVD релиза: 25 декабря 2008, «Двадцатый Век Фокс СНГ»-Видеокодек: Xvid
Битрейт видео: ~1844 Кбит/сек
Размер кадра: 688x384
Качество видео: DVDRip
Аудиокодек: AC3 5.1
Битрейт аудио: 448 Кбит/сек

MediaInfo

Общее
Полное имя : D:\Торрент раздача\Raschet.2004.P.DVDRip.avi
Формат : AVI
Формат/Информация : Audio Video Interleave
Размер файла : 1,46 Гбайт
Продолжительность : 1 ч. 30 м.
Общий поток : 2301 Кбит/сек
Программа кодирования : VirtualDubMod 1.5.10.3 | www.virtualdub-fr.org || (build 2550/release)
Библиотека кодирования : VirtualDubMod build 2550/release
Видео
Идентификатор : 0
Формат : MPEG-4 Visual
Профиль формата : Advanced Simple@L5
Параметр BVOP формата : 1
Параметр QPel формата : Нет
Параметр GMC формата : Без точки перехода
Параметр матрицы формата : Выборочная
Идентификатор кодека : XVID
Идентификатор кодека/Подсказка : XviD
Продолжительность : 1 ч. 30 м.
Битрейт : 1844 Кбит/сек
Ширина : 688 пикселей
Высота : 384 пикселя
Соотношение сторон : 16:9
Частота кадров : 25,000 кадров/сек
Цветовое пространство : YUV
Субдискретизация насыщенности : 4:2:0
Битовая глубина : 8 бит
Тип развёртки : Прогрессивная
Метод сжатия : С потерями
Бит/(Пиксели*Кадры) : 0.279
Размер потока : 1,17 Гбайт (80%)
Библиотека кодирования : XviD 65
Аудио
Идентификатор : 1
Формат : AC-3
Формат/Информация : Audio Coding 3
Расширение режима : CM (complete main)
Параметр Endianness формата : Big
Идентификатор кодека : 2000
Продолжительность : 1 ч. 30 м.
Вид битрейта : Постоянный
Битрейт : 448 Кбит/сек
Каналы : 6 каналов
Расположение каналов : Front: L C R, Side: L R, LFE
Частота : 48,0 КГц
Битовая глубина : 16 бит
Метод сжатия : С потерями
Размер потока : 290 Мбайт (19%)
Выравнивание : Разделение по промежуткам
Продолжительность промежутка : 40 мс. (1,00 видеокадр)
Время предзагрузки промежутка : 500 мс.
Скриншоты:
Время раздачи: 24/7

[Цитировать]



Показать сообщения:    

Текущее время: 24-Мар 22:00

Часовой пояс: UTC + 6


Вы не можете начинать темы
Вы не можете отвечать на сообщения
Вы не можете редактировать свои сообщения
Вы не можете удалять свои сообщения
Вы не можете голосовать в опросах
Вы не можете прикреплять файлы к сообщениям
Вы не можете скачивать файлы

!ВНИМАНИЕ!
Сайт не предоставляет электронные версии произведений, а занимается лишь коллекционированием и каталогизацией ссылок, присылаемых и публикуемых на форуме нашими читателями. Если вы являетесь правообладателем какого-либо представленного материала и не желаете, чтобы ссылка на него находилась в нашем каталоге, свяжитесь с нами, и мы незамедлительно удалим ее. Файлы для обмена на трекере предоставлены пользователями сайта, и администрация не несет ответственности за их содержание. Просьба не заливать файлы, защищенные авторскими правами, а также файлы нелегального содержания!