[ Сегодня идет свободное скачивание без начисления Download ]


Статистика раздачи
Нет
 
   
 
Top  
 
 
-Сохраняя веру / Keeping the Faith (2000) BDRip- Русское название: Сохраняя веру
Оригинальное название: Keeping the Faith
Год выпуска: 2000
Выпущено: США / Spyglass Entertainment, Touchstone Pictures, Triple Threat Talent
Жанр: Драма, Мелодрама, Комедия-Описание фильма:
Брайан, Джейкоб и Анна дружили с детства. Брайан стал католическим священником, Джейкоб — раввином, а Анна — деловой женщиной. Джейкобу как раввину необходимо жениться на еврейке. Когда он через несколько лет встретился с Анной, вспыхнула любовь.
Брайан тем временем тоже влюбился в Анну. Но Брайан и Джейк служат Богу, и у обоих нет никакой надежды: вероисповедание не позволяет ни одному из них быть вместе с прекрасной Анной. Однако какой бы крепкой ни была вера, ей очень трудно устоять перед искушением любовью…-Режиссер: Эдвард Нортон
Актеры: Бен Стиллер, Эдвард Нортон, Дженна Элфмэн, Энн Бэнкрофт, Эли Уоллах, Рон Рифкин, Милош Форман, Холланд Тейлор, Лиза Эдельштейн, Рена Софер-Продолжительность: 02:09:17
Перевод: Многоголосый закадровый
Язык субтитров: русские, английские
Вид субтитров: Отдельным файлом [подключаемые]- -Дата мировой премьеры: 5 апреля 2000
Дата выхода DVD релиза: 31 марта 2011, «Новый Диск»-Видеокодек: Xvid
Битрейт видео: ~1769 kbps
Размер кадра: 704x384
Качество видео: BDRip
Аудио#1: 48 kHz, AC3 Dolby Digital, 2/0 (L,R) ch, ~192 kbps avg (русский)
Аудио#2: 48 kHz, AC3 Dolby Digital, 3/2 (L,C,R,l,r) + LFE ch, ~448 kbps avg (английский)

MediaInfo

Общее
Полное имя : D:\Торрент раздача\Sohranyaya.veru.2000.DUAL.BDRip\Sohranyaya.veru.2000.DUAL.BDRip.avi
Формат : AVI
Формат/Информация : Audio Video Interleave
Профиль формата : OpenDML
Размер файла : 2,18 Гбайт
Продолжительность : 2 ч. 9 м.
Общий поток : 2417 Кбит/сек
Название фильма : Сохраняя веру / Keeping the Faith (2000) BDRip
Жанр : драма, мелодрама, комедия
Программа кодирования : VirtualDubMod 1.5.10.2 (build 2542/release)
Примечание : 09.02.2013
Видео
Идентификатор : 0
Формат : MPEG-4 Visual
Профиль формата : Advanced [email protected]
Параметр BVOP формата : 1
Параметр QPel формата : Нет
Параметр GMC формата : Без точки перехода
Параметр матрицы формата : Выборочная
Идентификатор кодека : XVID
Идентификатор кодека/Подсказка : XviD
Продолжительность : 2 ч. 9 м.
Битрейт : 1759 Кбит/сек
Ширина : 704 пикселя
Высота : 384 пикселя
Соотношение сторон : 1,85:1
Частота кадров : 23,976 кадра/сек
Цветовое пространство : YUV
Субдискретизация насыщенности : 4:2:0
Битовая глубина : 8 бит
Тип развёртки : Прогрессивная
Метод сжатия : С потерями
Бит/(Пиксели*Кадры) : 0.271
Размер потока : 1,59 Гбайт (73%)
Библиотека кодирования : XviD 65
Аудио #1
Идентификатор : 1
Формат : AC-3
Формат/Информация : Audio Coding 3
Расширение режима : CM (complete main)
Параметр Endianness формата : Big
Идентификатор кодека : 2000
Продолжительность : 2 ч. 9 м.
Вид битрейта : Постоянный
Битрейт : 192 Кбит/сек
Каналы : 2 канала
Расположение каналов : Front: L R
Частота : 48,0 КГц
Битовая глубина : 16 бит
Метод сжатия : С потерями
Размер потока : 178 Мбайт (8%)
Выравнивание : Разделение по промежуткам
Продолжительность промежутка : 42 мс. (1,00 видеокадр)
Время предзагрузки промежутка : 500 мс.
Аудио #2
Идентификатор : 2
Формат : AC-3
Формат/Информация : Audio Coding 3
Расширение режима : CM (complete main)
Параметр Endianness формата : Big
Идентификатор кодека : 2000
Продолжительность : 2 ч. 9 м.
Вид битрейта : Постоянный
Битрейт : 448 Кбит/сек
Каналы : 6 каналов
Расположение каналов : Front: L C R, Side: L R, LFE
Частота : 48,0 КГц
Битовая глубина : 16 бит
Метод сжатия : С потерями
Размер потока : 414 Мбайт (19%)
Выравнивание : Разделение по промежуткам
Продолжительность промежутка : 42 мс. (1,00 видеокадр)
Время предзагрузки промежутка : 500 мс.
Общее
Полное имя : D:\Торрент раздача\Sohranyaya.veru.2000.DUAL.BDRip\Sohranyaya.veru.2000.DUAL.BDRip.ENG.SDH.srt
Формат : SubRip
Размер файла : 111 Кбайт
Текст
Формат : SubRip
Метод сжатия : Без потерь
Общее
Полное имя : D:\Торрент раздача\Sohranyaya.veru.2000.DUAL.BDRip\Sohranyaya.veru.2000.DUAL.BDRip.RUS.srt
Формат : SubRip
Размер файла : 118 Кбайт
Текст
Формат : SubRip
Метод сжатия : Без потерь
Скриншоты:
Время раздачи: 24/7

[Цитировать]



Показать сообщения:    

Текущее время: 05-Дек 21:45

Часовой пояс: UTC + 3


Вы не можете начинать темы
Вы не можете отвечать на сообщения
Вы не можете редактировать свои сообщения
Вы не можете удалять свои сообщения
Вы не можете голосовать в опросах
Вы не можете прикреплять файлы к сообщениям
Вы не можете скачивать файлы

!ВНИМАНИЕ!
Сайт не предоставляет электронные версии произведений, а занимается лишь коллекционированием и каталогизацией ссылок, присылаемых и публикуемых на форуме нашими читателями. Если вы являетесь правообладателем какого-либо представленного материала и не желаете, чтобы ссылка на него находилась в нашем каталоге, свяжитесь с нами, и мы незамедлительно удалим ее. Файлы для обмена на трекере предоставлены пользователями сайта, и администрация не несет ответственности за их содержание. Просьба не заливать файлы, защищенные авторскими правами, а также файлы нелегального содержания!