[ Today is free to download without increasing Download ]

DL-List and Torrent activity
-Смертельный спуск / Ужасный снежный человек / Abominable Snowman / Deadly Descent (2012) HDTVRip-- Русское название: Смертельный спуск / Ужасный снежный человек
Оригинальное название: Abominable Snowman / Deadly Descent
Год выпуска: 2012
Страна: США | Syfy, UFO International Productions
Жанр: Боевик
-Описание фильма:
Кошмарный хищник атакует группу участников поисково-спасательной операции в отдаленных заснеженных горах.-Режиссер: Марко Макилааксо
Актеры: Адриан Пол, Чак Кэмпбелл, Элизабет Крофт, Лорен О'Нил, Николас Боултон, Сэм Кэссиди, Джесси Стил, Шон Тил-Продолжительность: 01:24:54
Перевод: Многоголосый закадровый [Syfy]

-Видеокодек: Xvid
Битрейт видео: ~956 Кбит/сек
Размер кадра: 720*400
Качество видео: HDTVRip
Аудиокодек: AC3 2.0
Битрейт аудио: 192 Кбит/сек


Полное имя : D:\Торрент раздача\Abominable.Snowman.2013.P.HDTVRip.avi
Формат : AVI
Формат/Информация : Audio Video Interleave
Размер файла : 703 Мбайт
Продолжительность : 1 ч. 24 м.
Общий поток : 1158 Кбит/сек
Программа кодирования : VirtualDubModRus (build 2439/release)
Библиотека кодирования : VirtualDub build 32661/release
Идентификатор : 0
Формат : MPEG-4 Visual
Профиль формата : Advanced Simple@L5
Параметр BVOP формата : 2
Параметр QPel формата : Нет
Параметр GMC формата : Без точки перехода
Параметр матрицы формата : Default (H.263)
Режим смешивания : Сжатый битовый поток
Идентификатор кодека : XVID
Идентификатор кодека/Подсказка : XviD
Продолжительность : 1 ч. 24 м.
Битрейт : 956 Кбит/сек
Ширина : 720 пикселей
Высота : 400 пикселей
Соотношение сторон : 16:9
Частота кадров : 23,976 кадра/сек
Цветовое пространство : YUV
Субдискретизация насыщенности : 4:2:0
Битовая глубина : 8 бит
Тип развёртки : Прогрессивная
Метод сжатия : С потерями
Бит/(Пиксели*Кадры) : 0.139
Размер потока : 581 Мбайт (83%)
Библиотека кодирования : XviD 64
Идентификатор : 1
Формат : AC-3
Формат/Информация : Audio Coding 3
Расширение режима : CM (complete main)
Параметр Endianness формата : Big
Идентификатор кодека : 2000
Продолжительность : 1 ч. 24 м.
Вид битрейта : Постоянный
Битрейт : 192 Кбит/сек
Каналы : 2 канала
Расположение каналов : Front: L R
Частота : 48,0 КГц
Битовая глубина : 16 бит
Метод сжатия : С потерями
Размер потока : 117 Мбайт (17%)
Выравнивание : Разделение по промежуткам
Продолжительность промежутка : 42 мс. (1,00 видеокадр)
Время предзагрузки промежутка : 500 мс.
Время раздачи: 24/7


Display posts:    

Current time is: 25-Oct 06:13

All times are UTC + 3

You cannot post new topics in this forum
You cannot reply to topics in this forum
You cannot edit your posts in this forum
You cannot delete your posts in this forum
You cannot vote in polls in this forum
You cannot attach files in this forum
You cannot download files in this forum

The site does not give electronic versions of products, and is engaged only in a collecting and cataloguing of the references sent and published at a forum by our readers. If you are the legal owner of any submitted material and do not wish that the reference to it was in our catalogue, contact us and we shall immediately remove her. Files for an exchange on tracker are given by users of a site, and the administration does not bear the responsibility for their maintenance. The request to not fill in the files protected by copyrights, and also files of the illegal maintenance!