[ Today is free to download without increasing Download ]

DL-List and Torrent activity
-Держись, Чарли! / Good Luck Charlie, It's Christmas! (2011) HDTVRip- Русское название: Держись, Чарли!
Оригинальное название: Good Luck Charlie, It's Christmas!
Год выпуска: 2011
Производство: США / Disney Channel, Salty Pictures Inc.
Жанр: Комедия, Семейный-Описание фильма:
Семья Тедди Данкана отправляется в путешествие из своего родного дома в Денвере в Палм Спрингс, где живут родители миссис Данкан. Где-то между Денвером и Ютой они заблудились, но их согласилась подвезти до Лас-Вегаса пожилая чета, ехавшая из Розвелла. В пути оказалось, что эти люди совершенно уверены, что их похищали инопланетяне. И это всего лишь начало приключений семьи Данкан…-Режиссер: Арлин Санфорд
Актеры: Бриджит Мендлер, Ли-Эллин Бейкер, Брэдли Стивен Перри, Миа Талерико, Эрик Аллан Крамер, Джейсон Долли, Дебра Монк, Майкл Каган, Эбби Кобб, Памела Данлэп-Продолжительность: 01:20:10
Перевод: Профессиональный (полное дублирование)
Субтитры: Нет- -Дата мировой премьеры: 2 декабря 2011
Дата российской премьеры: 6 января 2013-Видеокодек: Xvid
Качество видео: HDTVRip
Битрейт видео: ~2252 kb/s
Размер кадра: 720x400
Аудио: AC3 / 2.0 / 48 kHz / 192 kbps / 16 bit


Complete name : J:\Держись, Чарли! Good Luck Charlie, It's Christmas! (2011).avi
Format : AVI
Format/Info : Audio Video Interleave
File size : 1.37 GiB
Duration : 1h 20mn
Overall bit rate : 2 444 Kbps
Writing application : VirtualDubMod | www.virtualdub-fr.org || (build 2550/release)
Writing library : VirtualDubMod build 2550/release
ID : 0
Format : MPEG-4 Visual
Format profile : Advanced Simple@L5
Format settings, BVOP : 2
Format settings, QPel : No
Format settings, GMC : No warppoints
Format settings, Matrix : Default (MPEG)
Codec ID : XVID
Codec ID/Hint : XviD
Duration : 1h 20mn
Bit rate : 2 243 Kbps
Width : 720 pixels
Height : 400 pixels
Display aspect ratio : 16:9
Frame rate : 23.976 fps
Color space : YUV
Chroma subsampling : 4:2:0
Bit depth : 8 bits
Scan type : Progressive
Compression mode : Lossy
Bits/(Pixel*Frame) : 0.325
Stream size : 1.26 GiB (92%)
Writing library : XviD 65
ID : 1
Format : AC-3
Format/Info : Audio Coding 3
Mode extension : CM (complete main)
Format settings, Endianness : Big
Codec ID : 2000
Duration : 1h 20mn
Bit rate mode : Constant
Bit rate : 192 Kbps
Channel(s) : 2 channels
Channel positions : Front: L R
Sampling rate : 48.0 KHz
Bit depth : 16 bits
Compression mode : Lossy
Stream size : 110 MiB (8%)
Alignment : Split accross interleaves
Interleave, duration : 42 ms (1.00 video frame)
Interleave, preload duration : 500 ms
Скриншоты: Время раздачи: С 23:00 до 8:30 (24/7 - круглосуточно)


Display posts:    

Current time is: 21-Oct 17:58

All times are UTC + 3

You cannot post new topics in this forum
You cannot reply to topics in this forum
You cannot edit your posts in this forum
You cannot delete your posts in this forum
You cannot vote in polls in this forum
You cannot attach files in this forum
You cannot download files in this forum

The site does not give electronic versions of products, and is engaged only in a collecting and cataloguing of the references sent and published at a forum by our readers. If you are the legal owner of any submitted material and do not wish that the reference to it was in our catalogue, contact us and we shall immediately remove her. Files for an exchange on tracker are given by users of a site, and the administration does not bear the responsibility for their maintenance. The request to not fill in the files protected by copyrights, and also files of the illegal maintenance!