[ Сегодня идет свободное скачивание без начисления Download ]


Статистика раздачи
Нет
 
   
 
 
 
-Забытая во тьме / Left in Darkness (2006) DVDRip- Страна: США
Русское название: Забытая во тьме
Оригинальное название: Left in Darkness
Год выпуска: 2006
Жанр: Мистика, Триллер
Описание фильма:
Мама Селии умерла во время родов, её отец вскоре после этого. Дедушка с бабушкой растили и воспитывали девочку в меру своих возможностей. Когда ей исполнился 21 год, её изнасиловали и убили.
Теперь Селия узнает, что смерть — это только начало, особенно для несчастных душ, застрявших между адом и раем, в длинных лабиринтах чистилища, где обитают твари, которые и в самых жутких кошмарах не приснятся…Однако Селии предстоит бороться со своими страхами, чтобы спасти души тех, кого она любит и тем самым получить место на небесах.
Режиссер: Steven R. Monroe / Стивен Монро
Актеры: Моника Кина, Дэвид Андерс, Тим Томерсон, Крис Энджен, Тара Пейдж, Келсли Барни, Челси Кэннел, Жеридан Фрай, Эрик Ладин
Продолжительность: 01:24:13
Перевод: Многоголосый закадровый

Качество: DVDRip by bratec 2
Формат: AVI
Видео: DivX, 704х416 (1.692), 25.000 fps, 2282 Kbps, Bits/(Pixel*Frame): 0.312
Аудио: AC3, 192 Kbps, 2 channel, Front: L R, 48.0 KHz, 16 bits, Lossy, Русский, Многоголосый закадровый
Оригинальная дорожка: нет
Субтитры: нет
Сэмпл: Ссылка

Mediainfo

General
Complete name : Забытая во тьме. Left in Darkness. 2006. (мист. триллер). DVDRip.avi
Format : AVI
Format/Info : Audio Video Interleave
File size : 1.46 GiB
Duration : 1h 24mn
Overall bit rate : 2 483 Kbps
Writing application : VirtualDubMod 1.5.10.3 | www.virtualdub-fr.org || (build 2550/release)
Writing library : VirtualDubMod build 2550/release
Video
ID : 0
Format : MPEG-4 Visual
Format profile : Advanced [email protected]
Format settings, BVOP : 2
Format settings, QPel : No
Format settings, GMC : No warppoints
Format settings, Matrix : Default (MPEG)
Codec ID : DX50
Codec ID/Hint : DivX 5
Duration : 1h 24mn
Bit rate : 2 282 Kbps
Width : 704 pixels
Height : 416 pixels
Display aspect ratio : 1.692
Frame rate : 25.000 fps
Color space : YUV
Chroma subsampling : 4:2:0
Bit depth : 8 bits
Scan type : Progressive
Compression mode : Lossy
Bits/(Pixel*Frame) : 0.312
Stream size : 1.34 GiB (92%)
Writing library : XviD 1.2.1 (UTC 2008-12-04)
Audio
ID : 1
Format : AC-3
Format/Info : Audio Coding 3
Mode extension : CM (complete main)
Format settings, Endianness : Big
Codec ID : 2000
Duration : 1h 24mn
Bit rate mode : Constant
Bit rate : 192 Kbps
Channel(s) : 2 channels
Channel positions : Front: L R
Sampling rate : 48.0 KHz
Bit depth : 16 bits
Compression mode : Lossy
Stream size : 116 MiB (8%)
Alignment : Split accross interleaves
Interleave, duration : 40 ms (1.00 video frame)
Interleave, preload duration : 500 ms

О фильме от автора рипа bratec 2

Праведники попадают в рай, грешники в ад. Мученики остаются между небом и землей в темноте...
Слоган:
«Где-нибудь между небесами и их границами, окончательное зло хочет питаться.»
«Somewhere between heaven and hell, the ultimate evil wants to feed.»
Необычный фильм со смыслом, поймет не каждый, интересные повороты сюжета, развязка порадовала! Музыка восхитительная!!

Две лучшие рецензии кинопоиска

.. забытая
Если честно, меня фильм просто поразил. Любители кишек и медленного разделывания человеческих останков естественно останутся недовольны, поскольку в этом фильме затронуты куда более высокие мотивы. Редкий случай, когда сюжет заставляет задуматься о жизни.. и обо всём том, что нас ждёт после неё.
Силия — одна из тех, кого мы можем встретить каждый день на улице. Казалось бы обычная наивная девушка, по глазам которой с виду сложно сказать об одиночестве.. Трагическая судьба, трагическая смерть.
После просмотра у меня сложилось очень странное впечатление. Вольно-невольно начинаешь задумываться: а если после смерти всё действительно так? Кто придёт к нам на помощь..? И самое главное, кому готовы помочь мы..?
9 из 10
Самый обаятельный и привлекательный… дьявол во плоти
Могу сказать честно и без зазрения совести, что «Забытую во тьме» я посмотрела по одной причине — мой любимый Девид Андерс ("Герои», «Шпионка») в главной роли. Он снова играет плохого парня, но, честное слово, делает он это. как всегда, потрясающе, я не перестаю восхищаться, как же он органичен в этом образе.
Сюжет, на самом деле, вполне интересный, но у меня сложилось такое ощущение, что он не доработан, в нём чего-то не хватает. Главная героиня — это что-то, девочка, конечно, с тяжёлой судьбой, но она, видимо, решила усложнить её ещё больше, что незамедлительно привело её… к смерти. Вот тут-то и начинается весь ужас: она становится призраком и бродит по какой-то сумеречной зоне, очень похожей на место где она живет, но только вот людей здесь нет, а есть только страшные монстры — пожиратели душ, которые могут принимать человеческий вид. В конце фильма не было никакого шока, никакого «Ах!», хотя в целом не могу сказать, что фильм совсем уж безнадёжен.
Рекомендуется смотреть тем, кто любит очаровательных и харизматичных злых гениев, потому как в этом фильме он имеется.
8 из 10

Мнение обычного зрителя

Явно фильм снимался обдолбышами, такую хрень насочинять нормальному человеку не под силу, абсолютный вынос мозга, полная чушь и бессмыслица!!!!
Нормальный фильм про душу, застрявшую между Жизнью и Смертью.
Во всех этих фильмах есть только одна вонючая ложка дегтя. Видите ли, нельзя научиться жить (быть? пребывать? находиться?) в Аду или вот в таких местах. Почему? Потому что там нет правил. То есть учиться нечему и, стало быть, научиться невозможно.
Короче, следите за собой и будьте осторожны. Избегайте сексуального насилия над собой!
И пусть вас не забудут во тьме! Скриншоты:


Время раздачи: С 10:00 до 17:00 (мск)

[Цитировать]



Показать сообщения:    

Текущее время: 04-Дек 11:15

Часовой пояс: UTC + 3


Вы не можете начинать темы
Вы не можете отвечать на сообщения
Вы не можете редактировать свои сообщения
Вы не можете удалять свои сообщения
Вы не можете голосовать в опросах
Вы не можете прикреплять файлы к сообщениям
Вы не можете скачивать файлы

!ВНИМАНИЕ!
Сайт не предоставляет электронные версии произведений, а занимается лишь коллекционированием и каталогизацией ссылок, присылаемых и публикуемых на форуме нашими читателями. Если вы являетесь правообладателем какого-либо представленного материала и не желаете, чтобы ссылка на него находилась в нашем каталоге, свяжитесь с нами, и мы незамедлительно удалим ее. Файлы для обмена на трекере предоставлены пользователями сайта, и администрация не несет ответственности за их содержание. Просьба не заливать файлы, защищенные авторскими правами, а также файлы нелегального содержания!