[ Сегодня идет свободное скачивание без начисления Download ]


Статистика раздачи
Нет
 
   
 
Top  
 
 
-Несправедливые / Boo-dang-geo-rae (2010) HDRip- Русское название: Несправедливые
Оригинальное название: Boo-dang-geo-rae
Год выпуска: 2010
Страна: Южная Корея
Жанр: Триллер, Криминал, Драма-Описание фильма:
Полиция сбилась с ног, пытаясь найти убийцу-маньяка, держащего в страхе весь Сеул. Единственный подозреваемый застрелен при задержании, причём оказалось, что он был невиновен. Дело берёт под контроль президент страны. Начальству Национального полицейского управления срочно нужен новый убийца, и найти кандидата на эту роль поручают детективу Чхве Чхор Ги. Его, одного из лучших сыщиков страны, всё время обходили стороной при повышениях, но сейчас твёрдо пообещали высокий пост и перспективы — в случае успеха операции. При помощи знакомого гангстера Чхве Чхор Ги выполняет задание, однако тут всплывают последствия предыдущего дела, когда эти двое задели интересы крупного бизнесмена. Чтобы решить проблему, тот попросил своего знакомого — прокурора Чу Яна — разобраться с детективом. Так коррупционные разборки и защита чести мундира отодвигают на второй план поиски истинного убийцы и приводят к новым жертвам.-Режиссер: Рю Сын Ван
Актеры: Хван Чон Мин, Рю Сын Пом, Ю Хэ Чин, Ма Дон Сок, Чон Ман Сик-Продолжительность: 01:59:50
Перевод: Двуголосый закадровый [den904, DeadSno]
Перевод на русский: Recitant- -Дата мировой премьеры: 28 октября 2010-Видеокодек: Xvid
Битрейт видео: ~1616 kb/s
Размер кадра: 720x304
Качество видео: HDRip
Аудиокодек: MP3 (2 ch)
Битрейт аудио: 128 kb/s

MediaInfo

Общее
Полное имя : D:\Торрент раздача\2010_The Unjust.avi
Формат : AVI
Формат/Информация : Audio Video Interleave
Размер файла : 1,47 Гбайт
Продолжительность : 1 ч. 59 м.
Общий поток : 1754 Кбит/сек
Программа кодирования : VirtualDubMod 1.5.10.2 (build 2540/release)
Библиотека кодирования : VirtualDubMod build 2540/release
Видео
Идентификатор : 0
Формат : MPEG-4 Visual
Профиль формата : Advanced Simple@L5
Параметр BVOP формата : 2
Параметр QPel формата : Нет
Параметр GMC формата : Без точки перехода
Параметр матрицы формата : Выборочная
Идентификатор кодека : XVID
Идентификатор кодека/Подсказка : XviD
Продолжительность : 1 ч. 59 м.
Битрейт : 1617 Кбит/сек
Ширина : 720 пикселей
Высота : 304 пикселя
Соотношение сторон : 2,35:1
Частота кадров : 23,976 кадра/сек
Цветовое пространство : YUV
Субдискретизация насыщенности : 4:2:0
Битовая глубина : 8 бит
Тип развёртки : Прогрессивная
Метод сжатия : С потерями
Бит/(Пиксели*Кадры) : 0.308
Размер потока : 1,35 Гбайт (92%)
Библиотека кодирования : XviD 73
Аудио
Идентификатор : 1
Формат : MPEG Audio
Версия формата : Version 1
Профиль формата : Layer 3
Режим : Joint stereo
Расширение режима : MS Stereo
Идентификатор кодека : 55
Идентификатор кодека/Подсказка : MP3
Продолжительность : 1 ч. 59 м.
Вид битрейта : Постоянный
Битрейт : 128 Кбит/сек
Каналы : 2 канала
Частота : 48,0 КГц
Метод сжатия : С потерями
Размер потока : 110 Мбайт (7%)
Выравнивание : Соединение по промежуткам
Продолжительность промежутка : 42 мс. (1,00 видеокадр)
Время предзагрузки промежутка : 504 мс.
Скриншоты:
Время раздачи: 24/7

[Цитировать]



Показать сообщения:    

Текущее время: 10-Дек 04:09

Часовой пояс: UTC + 3


Вы не можете начинать темы
Вы не можете отвечать на сообщения
Вы не можете редактировать свои сообщения
Вы не можете удалять свои сообщения
Вы не можете голосовать в опросах
Вы не можете прикреплять файлы к сообщениям
Вы не можете скачивать файлы

!ВНИМАНИЕ!
Сайт не предоставляет электронные версии произведений, а занимается лишь коллекционированием и каталогизацией ссылок, присылаемых и публикуемых на форуме нашими читателями. Если вы являетесь правообладателем какого-либо представленного материала и не желаете, чтобы ссылка на него находилась в нашем каталоге, свяжитесь с нами, и мы незамедлительно удалим ее. Файлы для обмена на трекере предоставлены пользователями сайта, и администрация не несет ответственности за их содержание. Просьба не заливать файлы, защищенные авторскими правами, а также файлы нелегального содержания!