[ Сегодня идет свободное скачивание без начисления Download ]


Статистика раздачи
Нет
 
   
 
Top  
 
 
-Голодные игры / The Hunger Games (2012) [H.264] BDRip
«Да пребудет с вами удача»
- Русское название: Голодные игры
Оригинальное название: The Hunger Games
Год выпуска: 2012
Производство: США / Color Force
Жанр: Фантастика, боевик, приключения
Перевод: Дублированный [лицензия]
Субтитры: Вшитые отключаемые
Язык субтитров: Русский, Английский
Навигация по главам: Есть (16)-Дата мировой премьеры: 12 марта 2012
Дата российской премьеры: 22 марта 2012, «Вольга»
Дата выхода DVD/Blu-Ray релиза: 23 августа 2012, «Вольга»-Режиссер: Гэри Росс
Продюсер: Нина Джейкобсон, Джон Килик, Диана Альварез
Актеры: Дженнифер Лоуренс, Лиам Хемсворт, Джош Хатчерсон, Элизабет Бэнкс, Вуди Харрельсон, Стенли Туччи, Ленни Кравиц, Уэс Бентли, Дональд Сазерленд, Уиллоу Шилдс-Описание фильма:
Будущее. Деспотичное государство ежегодно устраивает показательные игры на выживание, за которыми в прямом эфире следит весь мир. Жребий участвовать в Играх выпадает юной Китнисс и тайно влюбленному в нее Питу. Они знакомы с детства, но теперь должны стать врагами. Ведь по нерушимому закону Голодных игр победить может только один из 24 участников. Судьям не важно кто выиграет, главное — зрелище. И на этот раз зрелище будет незабываемым.- [/ur][url=http://www.kinopoisk.ru/film/468581/]
Рейтинг MPAA: PG-13 (детям до 13 лет просмотр не желателен)
Российское возрастное ограничение: 16+ (зрителям, достигшим 16 лет)-Продолжительность: 02:22:33
Качество видео: BDRip
Видеокодек: MPEG-4 AVC/H.264
Битрейт видео: ~1260 Kbps
Размер кадра: 1024x428
Аудиокодек: AC3, 2 ch
Битрейт аудио: 192 Kbps
-

MediaInfo

General
Unique ID                      : 185731591455365611282381580436818797347 (0x8BBA9A75D16201D7AA52E98216DAA323)
Complete name                  : The.Hunger.Games.2012.BDRip-AVC.[NNM-Club.ru].mkv
Format                         : Matroska
Format version                 : Version 2
File size                      : 1.44 GiB
Duration                       : 2h 22mn
Overall bit rate               : 1 450 Kbps
Movie name                     : Голодные игры / The Hunger Games (2012) BDRip-AVC от Rulya74
Encoded date                   : UTC 2012-08-19 19:40:55
Writing application            : mkvmerge v5.7.0 ('The Whirlwind') built on Jul  8 2012 20:08:51
Writing library                : libebml v1.2.3 + libmatroska v1.3.0
Video
ID                             : 1
Format                         : AVC
Format/Info                    : Advanced Video Codec
Format profile                 : [url=mailto:High@L4.1]High@L4.1[/url]
Format settings, CABAC         : Yes
Format settings, ReFrames      : 9 frames
Codec ID                       : V_MPEG4/ISO/AVC
Duration                       : 2h 22mn
Bit rate                       : 1 260 Kbps
Width                          : 1 024 pixels
Height                         : 428 pixels
Display aspect ratio           : 2.40:1
Frame rate mode                : Constant
Frame rate                     : 23.976 fps
Color space                    : YUV
Chroma subsampling             : 4:2:0
Bit depth                      : 8 bits
Scan type                      : Progressive
Bits/(Pixel*Frame)             : 0.120
Stream size                    : 1.22 GiB (85%)
Writing library                : x264 core 125 r2200 999b753
Encoding settings              : cabac=1 / ref=9 / deblock=1:-2:-1 / analyse=0x3:0x113 / me=umh / subme=9 / psy=1 / psy_rd=1.00:0.00 / mixed_ref=1 / me_range=34 / chroma_me=1 / trellis=2 / 8x8dct=1 / cqm=0 / deadzone=21,11 / fast_pskip=1 / chroma_qp_offset=-2 / threads=10 / lookahead_threads=1 / sliced_threads=0 / nr=0 / decimate=1 / interlaced=0 / bluray_compat=0 / constrained_intra=0 / bframes=8 / b_pyramid=2 / b_adapt=1 / b_bias=0 / direct=3 / weightb=1 / open_gop=0 / weightp=2 / keyint=240 / keyint_min=23 / scenecut=40 / intra_refresh=0 / rc=2pass / mbtree=0 / bitrate=1260 / ratetol=1.0 / qcomp=0.60 / qpmin=10 / qpmax=51 / qpstep=4 / cplxblur=20.0 / qblur=0.5 / ip_ratio=1.40 / pb_ratio=1.30 / aq=1:1.00
Default                        : Yes
Forced                         : No
Audio
ID                             : 2
Format                         : AC-3
Format/Info                    : Audio Coding 3
Mode extension                 : CM (complete main)
Format settings, Endianness    : Big
Codec ID                       : A_AC3
Duration                       : 2h 22mn
Bit rate mode                  : Constant
Bit rate                       : 192 Kbps
Channel(s)                     : 2 channels
Channel positions              : Front: L R
Sampling rate                  : 48.0 KHz
Bit depth                      : 16 bits
Compression mode               : Lossy
Stream size                    : 196 MiB (13%)
Title                          : Дубляж  [Blu-ray]
Language                       : Russian
Default                        : Yes
Forced                         : No
Text #1
ID                             : 3
Format                         : UTF-8
Codec ID                       : S_TEXT/UTF8
Codec ID/Info                  : UTF-8 Plain Text
Language                       : Russian
Default                        : No
Forced                         : No
Text #2
ID                             : 4
Format                         : UTF-8
Codec ID                       : S_TEXT/UTF8
Codec ID/Info                  : UTF-8 Plain Text
Language                       : English
Default                        : No
Forced                         : No
Menu
00:00:00.000                   : en:00:00:00.000
00:10:05.814                   : en:00:10:05.814
00:18:00.079                   : en:00:18:00.079
00:25:05.879                   : en:00:25:05.879
00:31:12.662                   : en:00:31:12.662
00:43:28.564                   : en:00:43:28.564
00:50:38.702                   : en:00:50:38.702
00:56:58.915                   : en:00:56:58.915
01:06:57.764                   : en:01:06:57.764
01:15:58.971                   : en:01:15:58.971
01:22:06.046                   : en:01:22:06.046
01:29:00.418                   : en:01:29:00.418
01:38:00.750                   : en:01:38:00.750
01:43:19.193                   : en:01:43:19.193
01:57:56.611                   : en:01:57:56.611
02:09:26.550                   : en:02:09:26.550
-Скриншоты:

-Время раздачи: круглосуточно до 20 скачавших, далее по возможности

[Цитировать]



Показать сообщения:    

Текущее время: 07-Дек 19:32

Часовой пояс: UTC + 3


Вы не можете начинать темы
Вы не можете отвечать на сообщения
Вы не можете редактировать свои сообщения
Вы не можете удалять свои сообщения
Вы не можете голосовать в опросах
Вы не можете прикреплять файлы к сообщениям
Вы не можете скачивать файлы

!ВНИМАНИЕ!
Сайт не предоставляет электронные версии произведений, а занимается лишь коллекционированием и каталогизацией ссылок, присылаемых и публикуемых на форуме нашими читателями. Если вы являетесь правообладателем какого-либо представленного материала и не желаете, чтобы ссылка на него находилась в нашем каталоге, свяжитесь с нами, и мы незамедлительно удалим ее. Файлы для обмена на трекере предоставлены пользователями сайта, и администрация не несет ответственности за их содержание. Просьба не заливать файлы, защищенные авторскими правами, а также файлы нелегального содержания!