[ Сегодня идет свободное скачивание без начисления Download ]


Статистика раздачи
Нет
 
   
 
 
 
-Дьявол песков (Фин. версия) / Dust Devil (The Final Cut) (1992) DVDRip [H.264]- Страна: ЮАР, Великобритания
Русское название: Дьявол песков
Оригинальное название: Dust Devil
Год выпуска: 1992
Жанр: Мистика, Ужасы
Описание фильма:
По африканской пустыне бродит человек в запыленном плаще и совершает зверские убийства. Он расчленяет и насилует трупы (последовательность действий не ясна), смешивает кровь жертв с минералами и оставляет загадочные рисунки на месте преступления. Тут, как выясняется в ходе следствия, не обходится без колдовства и черной магии.
Режиссер: Ричард Стэнли / Richard Stanley
Актеры: Роберт Берк, Челси Филд, Зейкс Мокей, Джон Матшикидза, Руфус Суорт, Марианна Сейгебрехт, Уильям Хуткинс
Продолжительность: 01:48:49
Перевод: Одноголосный закадровый
Релиз группы: Video DEAD

Качество: DVDRip
Формат: MKV
Видео: H264, 704х384 (1.85:1), 23.976 fps, 1330 Kbps, Bits/(Pixel*Frame): 0.205
Аудио 1: AC3, 6 channels, Front: L C R, Side: L R, LFE2/0 (L,R) ch, 384 kbps, Русский, Одноголосный закадровый (Кашкин)
Аудио 2: Vorbis, Variable, 112 Kbps, 2 channels, 48.0 KHz, Original, English
Субтитры: нет
Навигация по главам: нет
Сэмпл: Ссылка

Mediainfo

General
Complete name : Дьявол песков (Фин. версия). Dust Devil (The Final Cut). 1992. (мист. ужасы). DVDRip-AVC.mkv
Format : Matroska
Format version : Version 1
File size : 1.37 GiB
Duration : 1h 48mn
Overall bit rate mode : Variable
Overall bit rate : 1 807 Kbps
Encoded date : UTC 2008-09-12 19:42:37
Writing application : mkvmerge v2.2.0 ('Turn It On Again') built on Mar 4 2008 12:58:26
Writing library : libebml v0.7.7 + libmatroska v0.8.1
Video
ID : 1
Format : AVC
Format/Info : Advanced Video Codec
Format profile : High@L3.1
Format settings, CABAC : Yes
Format settings, ReFrames : 10 frames
Codec ID : V_MPEG4/ISO/AVC
Duration : 1h 48mn
Bit rate : 1 330 Kbps
Width : 704 pixels
Height : 384 pixels
Display aspect ratio : 1.85:1
Frame rate mode : Constant
Frame rate : 23.976 fps
Color space : YUV
Chroma subsampling : 4:2:0
Bit depth : 8 bits
Scan type : Progressive
Bits/(Pixel*Frame) : 0.205
Stream size : 986 MiB (71%)
Writing library : x264 core 61 r965kVAQmod.PsyRDO 3d2983d
Encoding settings : cabac=1 / ref=10 / deblock=1:-6:-6 / analyse=0x3:0x133 / me=esa / subme=7 / psy_rd=1.0000:1.0000 / brdo=1 / mixed_ref=1 / me_range=10 / chroma_me=1 / trellis=2 / 8x8dct=1 / cqm=0 / deadzone=21,11 / chroma_qp_offset=-8 / threads=1 / nr=0 / decimate=0 / mbaff=0 / bframes=2 / b_pyramid=1 / b_adapt=1 / b_bias=-5 / direct=1 / wpredb=1 / bime=1 / keyint=250 / keyint_min=25 / scenecut=40 / rc=2pass / bitrate=1330 / ratetol=10.0 / qcomp=0.70 / qpmin=5 / qpmax=51 / qpstep=10 / cplxblur=20.0 / qblur=0.5 / ip_ratio=1.40 / pb_ratio=1.30 / aq=3:2:0.50 / zones=150627,155591,q=40
Default : Yes
Forced : No
Audio #1
ID : 2
Format : AC-3
Format/Info : Audio Coding 3
Mode extension : CM (complete main)
Format settings, Endianness : Big
Codec ID : A_AC3
Duration : 1h 48mn
Bit rate mode : Constant
Bit rate : 384 Kbps
Channel(s) : 6 channels
Channel positions : Front: L C R, Side: L R, LFE
Sampling rate : 48.0 KHz
Bit depth : 16 bits
Compression mode : Lossy
Stream size : 297 MiB (21%)
Language : Russian
Default : Yes
Forced : No
Audio #2
ID : 3
Format : Vorbis
Format settings, Floor : 1
Codec ID : A_VORBIS
Duration : 1h 48mn
Bit rate mode : Variable
Bit rate : 112 Kbps
Channel(s) : 2 channels
Sampling rate : 48.0 KHz
Compression mode : Lossy
Stream size : 86.6 MiB (6%)
Writing library : libVorbis 1.2 (UTC 2007-06-22)
Language : English
Default : No
Forced : No

Альтернативное описание фильма

Древний демон, заключенный в оболочку из человеческой плоти, бродит по пустыне и совершает ритуальные убийства тех, кто решил самостоятельно расстаться с жизнью. Очередной его жертвой должна быть сбежавшая от мужа женщина. Та легко становится любовницей демона, но стать его жертвенным ягненком не согласна.

Немного о версиях фильма

Читал, что режиссер несколько раз перемонтировал фильм.
Читал также, что версии отличаются друг от друга довольно сильно не только наличием/отсутствием каких-то сцен, но и порядком их расположения относительно друг друга.
В этом релизе одна из версий его монтажа. Желающим получить больше информации на эту тему рекомендую искать её самостоятельно.
Скриншоты:

Моё мнение о фильме

Удивительно стильный и атмосферный фильм, странный фильм, оставляющий послевкусие, и в котором больше вопросов, чем ответов.
Фильму соответствуют оба описания, которые я привел в оформлении релиза.
Для любителей жанра, ценящих неторопливую психологическую мистику без обилия спецэффектов
Время раздачи: С 10:00 до 17:00 (мск)

[Цитировать]



Показать сообщения:    

Текущее время: 07-Дек 13:40

Часовой пояс: UTC + 3


Вы не можете начинать темы
Вы не можете отвечать на сообщения
Вы не можете редактировать свои сообщения
Вы не можете удалять свои сообщения
Вы не можете голосовать в опросах
Вы не можете прикреплять файлы к сообщениям
Вы не можете скачивать файлы

!ВНИМАНИЕ!
Сайт не предоставляет электронные версии произведений, а занимается лишь коллекционированием и каталогизацией ссылок, присылаемых и публикуемых на форуме нашими читателями. Если вы являетесь правообладателем какого-либо представленного материала и не желаете, чтобы ссылка на него находилась в нашем каталоге, свяжитесь с нами, и мы незамедлительно удалим ее. Файлы для обмена на трекере предоставлены пользователями сайта, и администрация не несет ответственности за их содержание. Просьба не заливать файлы, защищенные авторскими правами, а также файлы нелегального содержания!