[ Сегодня идет свободное скачивание без начисления Download ]


Статистика раздачи
Нет
 
   
 
Top  
 
 
-Звери дикого Юга / Beasts of the Southern Wild (2012) BDRip
«Воображение - магия»

Русское название: Звери дикого Юга
Оригинальное название: Beasts of the Southern Wild
Год выпуска: 2012
Производство: США
Жанр: Фэнтези, Драма
Перевод: Профессиональный (многоголосый закадровый) |Лицензия|
Cубтитры: нет-Режиссер: Бен Зайтлин / Ben Zaytlyn
Актеры: Кувенжане Уоллис, Дуайт Генри, Леви Истерли, Лоуелл Лэндис, Памела Харпер, Джина Монтанна, Эмбер Генри, Джоншел Александр, Николас Кларк, Джозеф Браун-Описание фильма:
Шестилетняя Хашпаппи живет с отцом Винком в общине на краю мира. Они проводят свои дни, плавая в поисках рыбы в некоем подобии лодки, сделанной из остова пикапа. И пусть Винк суровый отец, зато его дочь будет подготовлена к выживанию в одиночку, когда его не станет. Однажды Винка скашивает непонятная болезнь, а природа сходит с ума: тают ледники, поднимается вода, появляется армия доисторических животных. Здоровье Винка все хуже, и Хашпаппи решает отправится на поиски своей матери…- -Релиз от: -Автор рипа: Yarmak23-Продолжительность: 01:33:19
Качество видео: BDRip |исходник: BDRemux / 1080p|
Формат видео: AVI
Видео: 656x352 (1.85:1), 23.976 fps, XviD 65 ~979 kbps avg, 0.177 bit/pixel
Аудио: 48 kHz, MPEG Layer 3, 2 ch, 128.00 kbps |Многоголосый закадровый|
Скачать: Сэмпл

MediaInfo

General
Complete name : Zveri.dikogo.Juga.2012.P.R5.BDRip.745MB_by_Yarmak23.avi
Format : AVI
Format/Info : Audio Video Interleave
File size : 745 MiB
Duration : 1h 33mn
Overall bit rate : 1 116 Kbps
Writing application : VirtualDubMod 1.5.10.2 (build 2540/release)
Writing library : VirtualDubMod build 2540/release
Video
ID : 0
Format : MPEG-4 Visual
Format profile : Advanced Simple@L5
Format settings, BVOP : 1
Format settings, QPel : No
Format settings, GMC : No warppoints
Format settings, Matrix : Custom
Codec ID : XVID
Codec ID/Hint : XviD
Duration : 1h 33mn
Bit rate : 979 Kbps
Width : 656 pixels
Height : 352 pixels
Display aspect ratio : 1.85:1
Frame rate : 23.976 fps
Color space : YUV
Chroma subsampling : 4:2:0
Bit depth : 8 bits
Scan type : Progressive
Compression mode : Lossy
Bits/(Pixel*Frame) : 0.177
Stream size : 653 MiB (88%)
Writing library : XviD 65
Audio
ID : 1
Format : MPEG Audio
Format version : Version 1
Format profile : Layer 3
Mode : Joint stereo
Mode extension : MS Stereo
Codec ID : 55
Codec ID/Hint : MP3
Duration : 1h 33mn
Bit rate mode : Constant
Bit rate : 128 Kbps
Channel(s) : 2 channels
Sampling rate : 48.0 KHz
Compression mode : Lossy
Stream size : 85.4 MiB (11%)
Alignment : Aligned on interleaves
Interleave, duration : 42 ms (1.00 video frame)
Interleave, preload duration : 504 ms
Скриншоты:
- - детям до 13 лет просмотр не желателен-Время раздачи: 24/7 (до 7 скачавших)

[Цитировать]



Показать сообщения:    

Текущее время: 22-Фев 07:16

Часовой пояс: UTC + 3


Вы не можете начинать темы
Вы не можете отвечать на сообщения
Вы не можете редактировать свои сообщения
Вы не можете удалять свои сообщения
Вы не можете голосовать в опросах
Вы не можете прикреплять файлы к сообщениям
Вы не можете скачивать файлы

!ВНИМАНИЕ!
Сайт не предоставляет электронные версии произведений, а занимается лишь коллекционированием и каталогизацией ссылок, присылаемых и публикуемых на форуме нашими читателями. Если вы являетесь правообладателем какого-либо представленного материала и не желаете, чтобы ссылка на него находилась в нашем каталоге, свяжитесь с нами, и мы незамедлительно удалим ее. Файлы для обмена на трекере предоставлены пользователями сайта, и администрация не несет ответственности за их содержание. Просьба не заливать файлы, защищенные авторскими правами, а также файлы нелегального содержания!