[ Сегодня идет свободное скачивание без начисления Download ]


Статистика раздачи
Нет
 
   
 
Top  
 
 
-Звери дикого Юга / Beasts of the Southern Wild (2012) BDRip
«Воображение - магия»

Русское название: Звери дикого Юга
Оригинальное название: Beasts of the Southern Wild
Год выпуска: 2012
Производство: США
Жанр: Фэнтези, Драма
Перевод: Профессиональный (многоголосый закадровый) |Лицензия|
Cубтитры: русские, английские (*.srt, отдельным файлом)
Оригинальная аудиодорожка: английский-Режиссер: Бен Зайтлин / Ben Zaytlyn
Актеры: Кувенжане Уоллис, Дуайт Генри, Леви Истерли, Лоуелл Лэндис, Памела Харпер, Джина Монтанна, Эмбер Генри, Джоншел Александр, Николас Кларк, Джозеф Браун-Описание фильма:
Шестилетняя Хашпаппи живет с отцом Винком в общине на краю мира. Они проводят свои дни, плавая в поисках рыбы в некоем подобии лодки, сделанной из остова пикапа. И пусть Винк суровый отец, зато его дочь будет подготовлена к выживанию в одиночку, когда его не станет. Однажды Винка скашивает непонятная болезнь, а природа сходит с ума: тают ледники, поднимается вода, появляется армия доисторических животных. Здоровье Винка все хуже, и Хашпаппи решает отправится на поиски своей матери…- -Релиз от: --Продолжительность: 01:33:19
Качество видео: BDRip |исходник: BDRemux / 1080p|
Формат видео: AVI
Видео: 704x384 (1.85:1), 23.976 fps, XviD 65 ~2399 kbps avg, 0.370 bit/pixel
Аудио #1: 48 kHz, AC3 Dolby Digital, 3/2 (L,C,R,l,r) + LFE ch, ~384.00 kbps |Многоголосый закадровый|
Аудио #2: 48 kHz, AC3 Dolby Digital, 3/2 (L,C,R,l,r) + LFE ch, ~448.00 kbps avg |Оригинал|
Скачать: Сэмпл

MediaInfo

General
Complete name : Zveri.dikogo.Juga.2012.P.R5.BDRip.2,18GB_by_Yarmak23.avi
Format : AVI
Format/Info : Audio Video Interleave
Format profile : OpenDML
File size : 2.12 GiB
Duration : 1h 33mn
Overall bit rate : 3 249 Kbps
Writing application : VirtualDubMod 1.5.10.2 (build 2540/release)
Writing library : VirtualDubMod build 2540/release
Video
ID : 0
Format : MPEG-4 Visual
Format profile : Advanced Simple@L5
Format settings, BVOP : 1
Format settings, QPel : No
Format settings, GMC : No warppoints
Format settings, Matrix : Custom
Codec ID : XVID
Codec ID/Hint : XviD
Duration : 1h 33mn
Bit rate : 2 399 Kbps
Width : 704 pixels
Height : 384 pixels
Display aspect ratio : 1.85:1
Frame rate : 23.976 fps
Color space : YUV
Chroma subsampling : 4:2:0
Bit depth : 8 bits
Scan type : Progressive
Compression mode : Lossy
Bits/(Pixel*Frame) : 0.370
Stream size : 1.56 GiB (74%)
Writing library : XviD 65
Audio #1
ID : 1
Format : AC-3
Format/Info : Audio Coding 3
Mode extension : CM (complete main)
Format settings, Endianness : Big
Codec ID : 2000
Duration : 1h 33mn
Bit rate mode : Constant
Bit rate : 384 Kbps
Channel(s) : 6 channels
Channel positions : Front: L C R, Side: L R, LFE
Sampling rate : 48.0 KHz
Bit depth : 16 bits
Compression mode : Lossy
Stream size : 256 MiB (12%)
Alignment : Split accross interleaves
Interleave, duration : 42 ms (1.00 video frame)
Interleave, preload duration : 500 ms
Audio #2
ID : 2
Format : AC-3
Format/Info : Audio Coding 3
Mode extension : CM (complete main)
Format settings, Endianness : Big
Codec ID : 2000
Duration : 1h 33mn
Bit rate mode : Constant
Bit rate : 448 Kbps
Channel(s) : 6 channels
Channel positions : Front: L C R, Side: L R, LFE
Sampling rate : 48.0 KHz
Bit depth : 16 bits
Compression mode : Lossy
Stream size : 299 MiB (14%)
Alignment : Split accross interleaves
Interleave, duration : 42 ms (1.00 video frame)
Interleave, preload duration : 500 ms
Скриншоты:
- - детям до 13 лет просмотр не желателен-Время раздачи: 24/7 (до 7 скачавших)

[Цитировать]



Показать сообщения:    

Текущее время: 11-Дек 07:18

Часовой пояс: UTC + 3


Вы не можете начинать темы
Вы не можете отвечать на сообщения
Вы не можете редактировать свои сообщения
Вы не можете удалять свои сообщения
Вы не можете голосовать в опросах
Вы не можете прикреплять файлы к сообщениям
Вы не можете скачивать файлы

!ВНИМАНИЕ!
Сайт не предоставляет электронные версии произведений, а занимается лишь коллекционированием и каталогизацией ссылок, присылаемых и публикуемых на форуме нашими читателями. Если вы являетесь правообладателем какого-либо представленного материала и не желаете, чтобы ссылка на него находилась в нашем каталоге, свяжитесь с нами, и мы незамедлительно удалим ее. Файлы для обмена на трекере предоставлены пользователями сайта, и администрация не несет ответственности за их содержание. Просьба не заливать файлы, защищенные авторскими правами, а также файлы нелегального содержания!