[ Сегодня идет свободное скачивание без начисления Download ]


Статистика раздачи
Нет
 
   
 
Top  
 
 
-Жатва / The Reaping (2007) BDRip-«У зла появился спаситель»- Русское название: Жатва
Оригинальное название: The Reaping
Год выпуска: 2007
Страна: США
Жанр: Ужасы, Триллер, Мистика-Описание фильма:
Кэтрин Уинтер, в прошлом ревностная христианка, а теперь верующая только в научный метод, одно за другим успешно расследует «божественные чудеса» в разных уголках мира. Однако главное испытание её истинной веры ещё впереди: вместе со своим напарником она отправляется в американский городишко Хейвен, жители которого убеждены, что на них посланы десять казней египетских…-Режиссер: Стивен Хопкинс
Актеры: Хилари Суэнк, Анна-Cофия Робб, Дэвид Моррисси, Идрис Эльба,Стивен Ри, Уильям Рэгсдэйл, Джон МакКоннелл-Продолжительность: 01:39:23
Перевод: Дублированный- -Дата мировой премьеры: 29 марта 2007
Дата российской премьеры: 19 апреля 2007, «Каро-Премьер»
Дата выхода DVD релиза: 15 июня 2009, «Юниверсал Пикчерс Рус»-Видеокодек: Xvid
Битрейт видео: ~2310 kb/s
Размер кадра: 720x304
Качество видео: BDRip
Видео: 720x304 (2.37:1), 23.976 fps, XviD MPEG-4 ~2310 kbps avg, 0.44 bit/pixel
Аудио 1: dub - 48 kHz, AC3 Dolby Digital, 3/2 (L,C,R,l,r) + LFE ch, ~384 kbps
Аудио 2: eng - 48 kHz, AC3 Dolby Digital, 3/2 (L,C,R,l,r) + LFE ch, ~448 kbps

MediaInfo:

General
Complete name : J:\Жатва The Reaping (2007).avi
Format : AVI
Format/Info : Audio Video Interleave
Format profile : OpenDML
File size : 2.18 GiB
Duration : 1h 39mn
Overall bit rate : 3 143 Kbps
Writing application : VirtualDubMod 1.5.10.3 | www.virtualdub-fr.org || (build 2550/release)
Writing library : VirtualDubMod build 2550/release
Video
ID : 0
Format : MPEG-4 Visual
Format profile : Advanced Simple@L5
Format settings, BVOP : 1
Format settings, QPel : No
Format settings, GMC : No warppoints
Format settings, Matrix : Custom
Codec ID : XVID
Codec ID/Hint : XviD
Duration : 1h 39mn
Bit rate : 2 293 Kbps
Width : 720 pixels
Height : 304 pixels
Display aspect ratio : 2.35:1
Frame rate : 23.976 fps
Color space : YUV
Chroma subsampling : 4:2:0
Bit depth : 8 bits
Scan type : Progressive
Compression mode : Lossy
Bits/(Pixel*Frame) : 0.437
Stream size : 1.59 GiB (73%)
Writing library : XviD 63
Audio #1
ID : 1
Format : AC-3
Format/Info : Audio Coding 3
Mode extension : CM (complete main)
Format settings, Endianness : Big
Codec ID : 2000
Duration : 1h 39mn
Bit rate mode : Constant
Bit rate : 384 Kbps
Channel(s) : 6 channels
Channel positions : Front: L C R, Side: L R, LFE
Sampling rate : 48.0 KHz
Bit depth : 16 bits
Compression mode : Lossy
Stream size : 273 MiB (12%)
Alignment : Split accross interleaves
Interleave, duration : 42 ms (1.00 video frame)
Interleave, preload duration : 500 ms
Audio #2
ID : 2
Format : AC-3
Format/Info : Audio Coding 3
Mode extension : CM (complete main)
Format settings, Endianness : Big
Codec ID : 2000
Duration : 1h 39mn
Bit rate mode : Constant
Bit rate : 448 Kbps
Channel(s) : 6 channels
Channel positions : Front: L C R, Side: L R, LFE
Sampling rate : 48.0 KHz
Bit depth : 16 bits
Compression mode : Lossy
Stream size : 318 MiB (14%)
Alignment : Split accross interleaves
Interleave, duration : 42 ms (1.00 video frame)
Interleave, preload duration : 500 ms
Скриншоты: Время раздачи: С 23:00 до 8:30 (24/7 - круглосуточно)

[Цитировать]



Показать сообщения:    

Текущее время: 08-Дек 23:04

Часовой пояс: UTC + 3


Вы не можете начинать темы
Вы не можете отвечать на сообщения
Вы не можете редактировать свои сообщения
Вы не можете удалять свои сообщения
Вы не можете голосовать в опросах
Вы не можете прикреплять файлы к сообщениям
Вы не можете скачивать файлы

!ВНИМАНИЕ!
Сайт не предоставляет электронные версии произведений, а занимается лишь коллекционированием и каталогизацией ссылок, присылаемых и публикуемых на форуме нашими читателями. Если вы являетесь правообладателем какого-либо представленного материала и не желаете, чтобы ссылка на него находилась в нашем каталоге, свяжитесь с нами, и мы незамедлительно удалим ее. Файлы для обмена на трекере предоставлены пользователями сайта, и администрация не несет ответственности за их содержание. Просьба не заливать файлы, защищенные авторскими правами, а также файлы нелегального содержания!