[ Сегодня идет свободное скачивание без начисления Download ]


Статистика раздачи
Нет
 
   
 
Top  
 
 
-Ночь вампиров / The Forsaken (2001) WEB-DLRip-«The night... has an appetite.»- Русское название: Ночь вампиров
Оригинальное название: The Forsaken
Год выпуска: 2001
Страна: США
Жанр: Ужасы, Триллер-Описание фильма:
огда Шон согласился перегнать с одного конца страны на другой шикарный “Мерседес”, он думал, что это будет непыльная работенка. Как же жестоко он ошибался… Подобрав на дороге безобидного на вид попутчика, герой разом перечеркнул все свои надежды на легкое путешествие. Незнакомец оказался охотником за вампирами! И теперь Шон волей-неволей оказывается втянут в кровавое приключение, которое легко может стоить ему жизни – бескомпромиссную битву с бандой жестоких и хитрых вурдалаков, промышляющих на трассе. Отступать поздно: когда в пути тебя застает ночь проклятых, остается только одно – сражаться до последнего. Даже если знаешь, что шанс дожить до утра человеком - один из тысячи.-Режиссер: Дж.С. Кардоне
Продюсер: Конни Дольф, Скотт Эйнбиндер, Кэрол Коттенбрук
Актеры: Керр Смит, Брендан Фер, Изабелла Мико, Джонатон Шаех, Фина Оруче, Саймон Рекс, Кэрри Снодгресс, Алексис Торпе, Ф.Дж. Флинн, Бет Энн Стайн-Продолжительность: 01:30:04
Перевод: Многоголосый закадровый / Двуголосый закадровый [украинский]
Язык субтитров: Русские
Вид субтитров: Вшитые отключаемые- -Дата мировой премьеры: 27 апреля 2001-Видеокодек: MPEG-4 AVC/H.264
Битрейт видео: ~3946 kb/s
Размер кадра: 1280x718
Качество видео: WEB-DLRip
Аудио#1: AC3 5.1, 448 kb/s - Многоголосый закадровый (Русский)
Аудио#2: AC3 2.0, 192 kb/s - Двуголосый закадровый (Украинский) Интер
Аудио#3: AC3 5.1, 384 kb/s - Английский

MediaInfo

Общее
Уникальный идентификатор : 225486851870716566153923165199574318207 (0xA9A33021509124BAB4389E0E5A253C7F)
Полное имя : D:\Торрент раздача\The.Forsaken.2001.WEB-DL.720p.RUS.UKR.ENG.mkv
Формат : Matroska
Версия формата : Version 4 / Version 2
Размер файла : 3,21 Гбайт
Продолжительность : 1 ч. 30 м.
Общий поток : 5071 Кбит/сек
Название фильма : Ночь вампиров / Покинутые / Пропащий / The Forsaken (2001) WEB-DL 720p
Дата кодирования : UTC 2013-02-04 17:42:44
Программа кодирования : mkvmerge v6.0.0 ('Coming Up For Air') built on Jan 20 2013 09:52:00
Библиотека кодирования : libebml v1.3.0 + libmatroska v1.4.0
Attachment : Yes
Видео
Идентификатор : 1
Формат : AVC
Формат/Информация : Advanced Video Codec
Профиль формата : High@L3.1
Параметр CABAC формата : Нет
Параметр ReFrames формата : 2 кадра
Идентификатор кодека : V_MPEG4/ISO/AVC
Продолжительность : 1 ч. 30 м.
Битрейт : 3946 Кбит/сек
Ширина : 1280 пикселей
Высота : 718 пикселей
Соотношение сторон : 16:9
Режим частоты кадров : Постоянный
Частота кадров : 23,976 кадра/сек
Цветовое пространство : YUV
Субдискретизация насыщенности : 4:2:0
Битовая глубина : 8 бит
Тип развёртки : Прогрессивная
Бит/(Пиксели*Кадры) : 0.179
Размер потока : 2,50 Гбайт (78%)
Язык : English
Default : Да
Forced : Нет
Основные цвета : BT.709
Характеристики трансфера : BT.709
Коэффициенты матрицы : BT.709
Аудио #1
Идентификатор : 2
Формат : AC-3
Формат/Информация : Audio Coding 3
Расширение режима : CM (complete main)
Параметр Endianness формата : Big
Идентификатор кодека : A_AC3
Продолжительность : 1 ч. 30 м.
Вид битрейта : Постоянный
Битрейт : 448 Кбит/сек
Каналы : 6 каналов
Расположение каналов : Front: L C R, Side: L R, LFE
Частота : 48,0 КГц
Битовая глубина : 16 бит
Метод сжатия : С потерями
Размер потока : 291 Мбайт (9%)
Язык : Russian
Default : Да
Forced : Нет
Аудио #2
Идентификатор : 3
Формат : AC-3
Формат/Информация : Audio Coding 3
Расширение режима : CM (complete main)
Параметр Endianness формата : Big
Идентификатор кодека : A_AC3
Продолжительность : 1 ч. 30 м.
Вид битрейта : Постоянный
Битрейт : 192 Кбит/сек
Каналы : 2 канала
Расположение каналов : Front: L R
Частота : 48,0 КГц
Битовая глубина : 16 бит
Метод сжатия : С потерями
Размер потока : 125 Мбайт (4%)
Язык : Ukrainian
Default : Нет
Forced : Нет
Аудио #3
Идентификатор : 4
Формат : AC-3
Формат/Информация : Audio Coding 3
Расширение режима : CM (complete main)
Параметр Endianness формата : Big
Идентификатор кодека : A_AC3
Продолжительность : 1 ч. 30 м.
Вид битрейта : Постоянный
Битрейт : 384 Кбит/сек
Каналы : 6 каналов
Расположение каналов : Front: L C R, Side: L R, LFE
Частота : 48,0 КГц
Битовая глубина : 16 бит
Метод сжатия : С потерями
Размер потока : 249 Мбайт (8%)
Язык : English
Default : Нет
Forced : Нет
Текст
Идентификатор : 5
Формат : UTF-8
Идентификатор кодека : S_TEXT/UTF8
Идентификатор кодека/Информация : UTF-8 Plain Text
Язык : Russian
Default : Нет
Forced : Нет
Меню
00:00:00.000 : en:Start
00:04:44.000 : en:One week vacation
00:07:34.000 : en:Flat broke
00:11:58.000 : en:Nick
00:13:31.000 : en:Rules of the road
00:16:03.000 : en:Bloodletters
00:18:42.000 : en:Dinner conversation
00:22:44.000 : en:The Palms Inn
00:25:06.000 : en:Private party
00:28:14.000 : en:Infected by a virus
00:33:08.000 : en:Seeing is believing
00:34:58.000 : en:Check-out time
00:36:49.000 : en:The Hunter
00:38:59.000 : en:Smoking Smokey
00:41:44.000 : en:Homing device
00:43:13.000 : en:The read deal
00:47:23.000 : en:"It's them!"
00:55:11.000 : en:Time to die
01:00:50.000 : en:Playing chicken
01:02:02.000 : en:Squeeze play
01:03:56.000 : en:Ina Hamm
01:07:09.000 : en:Arizona bloodbath
01:10:37.000 : en:Under siege
01:14:25.000 : en:"Come to Daddy, boys."
01:16:41.000 : en:Kit's new day driver
01:18:42.000 : en:Unfinished business
01:19:38.000 : en:Last stand
01:23:50.000 : en:The Hunters
Скриншоты:
Время раздачи: 24/7

[Цитировать]



Показать сообщения:    

Текущее время: 02-Дек 20:54

Часовой пояс: UTC + 3


Вы не можете начинать темы
Вы не можете отвечать на сообщения
Вы не можете редактировать свои сообщения
Вы не можете удалять свои сообщения
Вы не можете голосовать в опросах
Вы не можете прикреплять файлы к сообщениям
Вы не можете скачивать файлы

!ВНИМАНИЕ!
Сайт не предоставляет электронные версии произведений, а занимается лишь коллекционированием и каталогизацией ссылок, присылаемых и публикуемых на форуме нашими читателями. Если вы являетесь правообладателем какого-либо представленного материала и не желаете, чтобы ссылка на него находилась в нашем каталоге, свяжитесь с нами, и мы незамедлительно удалим ее. Файлы для обмена на трекере предоставлены пользователями сайта, и администрация не несет ответственности за их содержание. Просьба не заливать файлы, защищенные авторскими правами, а также файлы нелегального содержания!