[ Сегодня идет свободное скачивание без начисления Download ]


Статистика раздачи
Нет
 
   
 
Top  
 
 
-Джекпот / Arme Riddere (2011) HDRip-«Рождественская комедия со смертельным исходом!»- Русское название: Джекпот
Оригинальное название: Arme Riddere
Год выпуска: 2011
Страна: Норвегия | Det Danske Filminstitut, Fantefilm, Film i V?st, Zentropa
Жанр: боевик, криминал, комедия-Описание фильма:
Испуганный и окровавленный, Оскар Свендсен просыпается с ружьём в руках в сомнительном заведении. Вокруг него 8 трупов и полиция, направляющаяся к нему. Оскар знает, что он невиновен. А всё началось с того, что четыре парня выиграли 1,7 миллиона в лотерею…-Режиссер: Магнус Мартенс
Актеры: Карре Хеллум, Мэдс Оусдаль, Хенрик Местад, Артур Бернинг, Андреас Каппелен, Лена Эллингсен, Фридтьов Сохейм, Петер Андерссон, Ян Гронли, Мари Блокхус...-Продолжительность: 01:25:35
Перевод: Многоголосый закадровый, профессиональный- -Дата мировой премьеры: 2 декабря 2011
Дата российской премьеры: 27 декабря 2012, «Кино без границ»
Дата выхода DVD релиза: 28 января 2013, «Новый Диск»-Видеокодек: Xvid
Битрейт видео: ~941 Кбит/сек
Размер кадра: 720x304
Качество видео: HDRip
Аудиокодек: AC3 2.0
Битрейт аудио: 192 Кбит/сек

MediaInfo:

Общее
Полное имя : D:\Торрент раздача\Dzhekpot.2011.P.HDRip.avi
Формат : AVI
Формат/Информация : Audio Video Interleave
Размер файла : 699 Мбайт
Продолжительность : 1 ч. 25 м.
Общий поток : 1142 Кбит/сек
Название фильма : Dzhekpot.2011.P.HDRip
Жанр : Action, Comedy, Crime
Программа кодирования : VirtualDubMod 1.5.10.2 (build 2540/release)
Библиотека кодирования : VirtualDub build 32661/release
Формат оригинала/Имя : Movie
Видео
Идентификатор : 0
Формат : MPEG-4 Visual
Профиль формата : Advanced [email protected]
Параметр BVOP формата : 2
Параметр QPel формата : Нет
Параметр GMC формата : Без точки перехода
Параметр матрицы формата : Default (H.263)
Режим смешивания : Сжатый битовый поток
Идентификатор кодека : XVID
Идентификатор кодека/Подсказка : XviD
Продолжительность : 1 ч. 25 м.
Битрейт : 941 Кбит/сек
Ширина : 720 пикселей
Высота : 304 пикселя
Соотношение сторон : 2,35:1
Частота кадров : 24,000 кадра/сек
Цветовое пространство : YUV
Субдискретизация насыщенности : 4:2:0
Битовая глубина : 8 бит
Тип развёртки : Прогрессивная
Метод сжатия : С потерями
Бит/(Пиксели*Кадры) : 0.179
Размер потока : 576 Мбайт (82%)
Библиотека кодирования : XviD 64
Аудио
Идентификатор : 1
Формат : AC-3
Формат/Информация : Audio Coding 3
Расширение режима : CM (complete main)
Параметр Endianness формата : Big
Идентификатор кодека : 2000
Продолжительность : 1 ч. 25 м.
Вид битрейта : Постоянный
Битрейт : 192 Кбит/сек
Каналы : 2 канала
Расположение каналов : Front: L R
Частота : 48,0 КГц
Битовая глубина : 16 бит
Метод сжатия : С потерями
Размер потока : 118 Мбайт (17%)
Выравнивание : Соединение по промежуткам
Продолжительность промежутка : 42 мс. (1,00 видеокадр)
Время предзагрузки промежутка : 512 мс.
Скриншоты:
Время раздачи: 24/7

[Цитировать]



Показать сообщения:    

Текущее время: 05-Дек 23:45

Часовой пояс: UTC + 3


Вы не можете начинать темы
Вы не можете отвечать на сообщения
Вы не можете редактировать свои сообщения
Вы не можете удалять свои сообщения
Вы не можете голосовать в опросах
Вы не можете прикреплять файлы к сообщениям
Вы не можете скачивать файлы

!ВНИМАНИЕ!
Сайт не предоставляет электронные версии произведений, а занимается лишь коллекционированием и каталогизацией ссылок, присылаемых и публикуемых на форуме нашими читателями. Если вы являетесь правообладателем какого-либо представленного материала и не желаете, чтобы ссылка на него находилась в нашем каталоге, свяжитесь с нами, и мы незамедлительно удалим ее. Файлы для обмена на трекере предоставлены пользователями сайта, и администрация не несет ответственности за их содержание. Просьба не заливать файлы, защищенные авторскими правами, а также файлы нелегального содержания!