[ Сегодня идет свободное скачивание без начисления Download ]


Статистика раздачи
Нет
 
   
 
Top  
 
 
-Сайлент Хилл 2 / Silent Hill: Revelation (2012) ВDRip- «В этот Хэллоуин 3D путешествие в ад»- Русское название: Сайлент Хилл 2
Оригинальное название: Silent Hill: Revelation
Год выпуска: 2012
Производство: Франция, США, Канада / Davis-Films, Silent Hill 2 DCP
Жанр: Ужасы, Триллер, Детектив
Перевод: Дублированный [лицензия]
Субтитры: Отсутствуют
Дата мировой премьеры: 25 октября 2012
Дата российской премьеры: 25 октября 2012, «West»
Дата выхода DVD релиза: 19 февраля 2013, «West Video»
Режиссер: Майкл Дж. Бассетт
Продюсер: Дон Кармоди, Сэмюэл Хадида, Хартли Горенштейн
Актеры: Шон Бин, Кит Харингтон, Кэрри-Энн Мосс, Малкольм МакДауэлл, Рада Митчелл, Дебора Кара Ангер, Мартин Донован
Описание фильма:
Хизер терзается ночными кошмарами с одиннадцатилетнего возраста и вынуждена со своим отцом постоянно менять место жительства, скрываясь от таинственных сил. Накануне своего восемнадцатого дня рождения Хизер, вернувшись домой, обнаруживает, что её отец исчез. Единственное, что она нашла дома — нарисованный на стене оккультный символ с надписью «отправляйся в Сайлент-Хилл».- -Продолжительность: 01:34:46
Качество видео: ВDRip [Исходник BDRip 720p ]
Видеокодек: MPEG-4 AVC/H.264
Битрейт видео: ~ 1746 Kbps
Размер кадра: 720x304 (2.35:1)
Аудио: AC3, 6 ch, 448 Кбит/с
Сэмпл: Скачать

MediaInfo:

Общее
Полное имя                               : E:\Загрузка\Сайлент Хилл 2.BDRip.avi
Формат                                   : AVI
Формат/Информация                        : Audio Video Interleave
Размер файла                             : 1,46 Гбайт
Продолжительность                        : 1 ч. 34 м.
Общий поток                              : 2204 Кбит/сек
Программа кодирования                    : VirtualDubMod 1.5.10.3 (build 2550/release)
Библиотека кодирования                   : VirtualDubMod build 2550/release
Видео
Идентификатор                            : 0
Формат                                   : MPEG-4 Visual
Профиль формата                          : Advanced Simple@L5
Параметр BVOP формата                    : 2
Параметр QPel формата                    : Нет
Параметр GMC формата                     : Без точки перехода
Параметр матрицы формата                 : Default (MPEG)
Идентификатор кодека                     : XVID
Идентификатор кодека/Подсказка           : XviD
Продолжительность                        : 1 ч. 34 м.
Битрейт                                  : 1746 Кбит/сек
Ширина                                   : 720 пикселей
Высота                                   : 304 пикселя
Соотношение сторон                       : 2,35:1
Частота кадров                           : 23,976 кадра/сек
Цветовое пространство                    : YUV
Субдискретизация насыщенности            : 4:2:0
Битовая глубина                          : 8 бит
Тип развёртки                            : Прогрессивная
Метод сжатия                             : С потерями
Бит/(Пиксели*Кадры)                      : 0.333
Размер потока                            : 1,16 Гбайт (79%)
Библиотека кодирования                   : XviD 64
Аудио
Идентификатор                            : 1
Формат                                   : AC-3
Формат/Информация                        : Audio Coding 3
Расширение режима                        : CM (complete main)
Параметр Endianness формата              : Big
Идентификатор кодека                     : 2000
Продолжительность                        : 1 ч. 34 м.
Вид битрейта                             : Постоянный
Битрейт                                  : 448 Кбит/сек
Каналы                                   : 6 каналов
Расположение каналов                     : Front: L C R, Side: L R, LFE
Частота                                  : 48,0 КГц
Битовая глубина                          : 16 бит
Метод сжатия                             : С потерями
Размер потока                            : 304 Мбайт (20%)
Выравнивание                             : Разделение по промежуткам
Продолжительность промежутка             : 42  мс. (1,00 видеокадр)
Время предзагрузки промежутка            : 500  мс.
Скриншоты:
-Приятного просмотра
и не забываем говорить СПАСИБО...
-Время раздачи: 24/7
до 15 скачавших..

[Цитировать]



Показать сообщения:    

Текущее время: 11-Дек 09:07

Часовой пояс: UTC + 3


Вы не можете начинать темы
Вы не можете отвечать на сообщения
Вы не можете редактировать свои сообщения
Вы не можете удалять свои сообщения
Вы не можете голосовать в опросах
Вы не можете прикреплять файлы к сообщениям
Вы не можете скачивать файлы

!ВНИМАНИЕ!
Сайт не предоставляет электронные версии произведений, а занимается лишь коллекционированием и каталогизацией ссылок, присылаемых и публикуемых на форуме нашими читателями. Если вы являетесь правообладателем какого-либо представленного материала и не желаете, чтобы ссылка на него находилась в нашем каталоге, свяжитесь с нами, и мы незамедлительно удалим ее. Файлы для обмена на трекере предоставлены пользователями сайта, и администрация не несет ответственности за их содержание. Просьба не заливать файлы, защищенные авторскими правами, а также файлы нелегального содержания!