[ Сегодня идет свободное скачивание без начисления Download ]


Статистика раздачи
Нет
 
   
 
Top  
 
 
- Многоэтажка / Tower Block (2012) DVDRip - Русское название: Многоэтажка
Оригинальное название: Tower Block
Год выпуска: 2012
Производство: Великобритания / Creativity Media, Tea Shop & Film Company
Жанр: Триллер-Описание фильма:
Спустя год после того как жители высотки N31 стали свидетелями убийства, их начинает отстреливать снайпер. А тех, кому посчастливилось уцелеть, он стравливает в битве за выживание.-Режиссер: Джеймс Нанн, Ронни Томпсон
Продюсер: Джеймс Харрис, Марк Лэйн, Ронни Томпсон
Актеры: Джилл Бейкер, Джек О’Коннелл, Набил Елухаби, Лоуи Бэтли, Ральф Браун, Джули Грэм, Кристофер Фулфорд, Рассел Тови, Шеридан Смит, Стивен Кри-Продолжительность: 01:26:25
Перевод: Одноголосый закадровый, любительский [den904], перевод [Janetta]-Дата мировой премьеры: 21 августа 2012- -Видеокодек: Xvid
Битрейт видео: ~928 Кбит/сек
Размер кадра: 720x304
Качество видео: DVDRip
Аудиокодек: AC3 2.0
Битрейт аудио: 192 Кбит/сек

MediaInfo

Общее
Полное имя : D:\Торрент раздача\Tower.block.2012.L1.DVDRip700Mb.avi
Формат : AVI
Формат/Информация : Audio Video Interleave
Размер файла : 698 Мбайт
Продолжительность : 1 ч. 26 м.
Общий поток : 1130 Кбит/сек
Программа кодирования : VirtualDubMod 1.5.10.2 (build 2540/release)
Библиотека кодирования : VirtualDub build 32661/release
Видео
Идентификатор : 0
Формат : MPEG-4 Visual
Профиль формата : Advanced [email protected]
Параметр BVOP формата : 2
Параметр QPel формата : Нет
Параметр GMC формата : Без точки перехода
Параметр матрицы формата : Default (H.263)
Режим смешивания : Сжатый битовый поток
Идентификатор кодека : XVID
Идентификатор кодека/Подсказка : XviD
Продолжительность : 1 ч. 26 м.
Битрейт : 928 Кбит/сек
Ширина : 720 пикселей
Высота : 304 пикселя
Соотношение сторон : 2,35:1
Частота кадров : 25,000 кадров/сек
Цветовое пространство : YUV
Субдискретизация насыщенности : 4:2:0
Битовая глубина : 8 бит
Тип развёртки : Прогрессивная
Метод сжатия : С потерями
Бит/(Пиксели*Кадры) : 0.170
Размер потока : 574 Мбайт (82%)
Библиотека кодирования : XviD 64
Аудио
Идентификатор : 1
Формат : AC-3
Формат/Информация : Audio Coding 3
Расширение режима : CM (complete main)
Параметр Endianness формата : Big
Идентификатор кодека : 2000
Продолжительность : 1 ч. 26 м.
Вид битрейта : Постоянный
Битрейт : 192 Кбит/сек
Каналы : 2 канала
Расположение каналов : Front: L R
Частота : 48,0 КГц
Битовая глубина : 16 бит
Метод сжатия : С потерями
Размер потока : 119 Мбайт (17%)
Выравнивание : Соединение по промежуткам
Продолжительность промежутка : 40 мс. (1,00 видеокадр)
Время предзагрузки промежутка : 512 мс.
Скриншоты:
Время раздачи: с 09:00 до 23:00 (МСК)

[Цитировать]



Показать сообщения:    

Текущее время: 04-Дек 15:21

Часовой пояс: UTC + 3


Вы не можете начинать темы
Вы не можете отвечать на сообщения
Вы не можете редактировать свои сообщения
Вы не можете удалять свои сообщения
Вы не можете голосовать в опросах
Вы не можете прикреплять файлы к сообщениям
Вы не можете скачивать файлы

!ВНИМАНИЕ!
Сайт не предоставляет электронные версии произведений, а занимается лишь коллекционированием и каталогизацией ссылок, присылаемых и публикуемых на форуме нашими читателями. Если вы являетесь правообладателем какого-либо представленного материала и не желаете, чтобы ссылка на него находилась в нашем каталоге, свяжитесь с нами, и мы незамедлительно удалим ее. Файлы для обмена на трекере предоставлены пользователями сайта, и администрация не несет ответственности за их содержание. Просьба не заливать файлы, защищенные авторскими правами, а также файлы нелегального содержания!