[ Сегодня идет свободное скачивание без начисления Download ]


Статистика раздачи
Нет
 
   
 
Top  
 
 
-Паранормальное явление 4 / Paranormal Activity 4 (2012) [H.264] BDRip
«Что же произошло на самом деле?»
- Русское название: Паранормальное явление 4
Оригинальное название: Paranormal Activity 4
Год выпуска: 2012
Производство: США
Жанр: Ужасы
Перевод: Дублированный [Лицензия, Blu-Ray CEE]
Дата мировой премьеры: 27 сентября 2012
Дата российской премьеры: 18 октября 2012, «Централ Партнершип»
Дата выхода DVD/Blu-Ray релиза: 11 февраля 2013, «Новый Диск»
Режиссер: Генри Джуст, Эриель Шульман
Актеры: Кэтрин Ньютон, Кэти Фезерстон, Мэтт Шивли, Брэйди Аллен, Алиша Боэ, Томми Миранда, Роли дублировали:, Лиза Мартиросова, Екатерина Щанкина, Дмитрий Череватенко, Даня Бледный
Описание фильма:
Действие разворачивается спустя 5 лет с момента событий фильма «Паранормальное явление 2». Алекс и её бойфренд борются с паранормальной активностью в их доме.

Рейтинг MPAA: R (лицам до 17 лет обязательно присутствие взрослого)
Российское возрастное ограничение: 16+ (зрителям, достигшим 16 лет)
Продолжительность: 01:27:08
Качество видео: BDRip
Видеокодек: MPEG-4 AVC/H.264
Битрейт видео: ~1632 Kbps
Размер кадра: 976x552
Аудио #1: Русский, 48 kHz, AC3 Dolby Digital, 3/2 (L,C,R,l,r) + LFE ch, ~448 kbps | Профессиональный дублированный перевод
Аудио #2: Английский, 48 kHz, AC3 Dolby Digital, 3/2 (L,C,R,l,r) + LFE ch, ~384 kbps | Оригинальная звуковая дорожка

MediaInfo

General
Unique ID                      : 220088679445707700285238161043499888115 (0xA59389AE57CF726B9B1690E5CFF9ADF3)
Complete name                  : Paranormal.Activity.4.2012.D.BDRip-AVC.[NNM-Club.ru].mkv
Format                         : Matroska
Format version                 : Version 2
File size                      : 1.50 GiB
Duration                       : 1h 27mn
Overall bit rate               : 2 464 Kbps
Movie name                     : -=POTROKS=-
Encoded date                   : UTC 2013-02-07 12:07:56
Writing application            : mkvmerge v5.7.0 ('The Whirlwind') built on Jul  8 2012 20:08:51
Writing library                : libebml v1.2.3 + libmatroska v1.3.0
Video
ID                             : 1
Format                         : AVC
Format/Info                    : Advanced Video Codec
Format profile                 : [url=mailto:[email protected]][email protected][/url]
Format settings, CABAC         : Yes
Format settings, ReFrames      : 13 frames
Codec ID                       : V_MPEG4/ISO/AVC
Duration                       : 1h 27mn
Bit rate                       : 1 632 Kbps
Width                          : 976 pixels
Height                         : 552 pixels
Display aspect ratio           : 16:9
Original display aspect ratio  : 16:9
Frame rate mode                : Constant
Frame rate                     : 23.976 fps
Color space                    : YUV
Chroma subsampling             : 4:2:0
Bit depth                      : 8 bits
Scan type                      : Progressive
Bits/(Pixel*Frame)             : 0.126
Stream size                    : 987 MiB (64%)
Title                          : Paranormal Activity 4
Writing library                : x264 core 128 r2216M 198a7ea
Encoding settings              : cabac=1 / ref=14 / deblock=1:-3:-3 / analyse=0x3:0x133 / me=umh / subme=11 / psy=1 / psy_rd=1.07:0.00 / mixed_ref=1 / me_range=32 / chroma_me=1 / trellis=2 / 8x8dct=1 / cqm=0 / deadzone=21,11 / fast_pskip=0 / chroma_qp_offset=-2 / threads=4 / lookahead_threads=1 / sliced_threads=0 / nr=0 / decimate=1 / interlaced=0 / bluray_compat=0 / constrained_intra=0 / bframes=15 / b_pyramid=1 / b_adapt=2 / b_bias=0 / direct=3 / weightb=1 / open_gop=1 / weightp=2 / keyint=240 / keyint_min=23 / scenecut=40 / intra_refresh=0 / rc_lookahead=240 / rc=2pass / mbtree=1 / bitrate=1632 / ratetol=1.0 / qcomp=0.70 / qpmin=0 / qpmax=65 / qpstep=3 / cplxblur=20.0 / qblur=0.5 / vbv_maxrate=20000 / vbv_bufsize=20000 / nal_hrd=none / ip_ratio=1.35 / aq=2:0.90
Language                       : English
Default                        : Yes
Forced                         : No
Audio #1
ID                             : 2
Format                         : AC-3
Format/Info                    : Audio Coding 3
Mode extension                 : CM (complete main)
Format settings, Endianness    : Big
Codec ID                       : A_AC3
Duration                       : 1h 27mn
Bit rate mode                  : Constant
Bit rate                       : 448 Kbps
Channel(s)                     : 6 channels
Channel positions              : Front: L C R, Side: L R, LFE
Sampling rate                  : 48.0 KHz
Bit depth                      : 16 bits
Compression mode               : Lossy
Stream size                    : 279 MiB (18%)
Title                          : Dub | DD 5.1 @ 448 kbps
Language                       : Russian
Default                        : Yes
Forced                         : Yes
Audio #2
ID                             : 3
Format                         : AC-3
Format/Info                    : Audio Coding 3
Mode extension                 : CM (complete main)
Format settings, Endianness    : Big
Codec ID                       : A_AC3
Duration                       : 1h 27mn
Bit rate mode                  : Constant
Bit rate                       : 384 Kbps
Channel(s)                     : 6 channels
Channel positions              : Front: L C R, Side: L R, LFE
Sampling rate                  : 48.0 KHz
Bit depth                      : 16 bits
Compression mode               : Lossy
Delay relative to video        : 27ms
Stream size                    : 239 MiB (16%)
Title                          : Original | DD 5.1 @ 384 kbps
Language                       : English
Default                        : No
Forced                         : No
-Скриншоты:

-Время раздачи: c 10:00 до 23:59 по МСК до 20 скачавших, далее по возможности

[Цитировать]



Показать сообщения:    

Текущее время: 05-Дек 07:35

Часовой пояс: UTC + 3


Вы не можете начинать темы
Вы не можете отвечать на сообщения
Вы не можете редактировать свои сообщения
Вы не можете удалять свои сообщения
Вы не можете голосовать в опросах
Вы не можете прикреплять файлы к сообщениям
Вы не можете скачивать файлы

!ВНИМАНИЕ!
Сайт не предоставляет электронные версии произведений, а занимается лишь коллекционированием и каталогизацией ссылок, присылаемых и публикуемых на форуме нашими читателями. Если вы являетесь правообладателем какого-либо представленного материала и не желаете, чтобы ссылка на него находилась в нашем каталоге, свяжитесь с нами, и мы незамедлительно удалим ее. Файлы для обмена на трекере предоставлены пользователями сайта, и администрация не несет ответственности за их содержание. Просьба не заливать файлы, защищенные авторскими правами, а также файлы нелегального содержания!