[ Сегодня идет свободное скачивание без начисления Download ]


Статистика раздачи
Нет
 
   
 
Top  
 
 
-Присяжная / The Juror (1996) DVDRip«There is no defense.»-
Русское название: Присяжная
Оригинальное название: The Juror
Год выпуска: 1996
Жанр: Триллер, Детектив, Драма
Описание фильма:
Энни, молодая женщина-присяжная знакомится с приятным молодым человеком. Умный и уверенный в себе, он завоевывает девушку, но страсть, вспыхнувшая в ее сердце, может сыграть с ней злую шутку… Она не знает, что ее возлюбленный работает на мафию, а связь с ней нужна ему для достижения тайной цели – освобождения главаря преступной группировки и признания его невиновности в суде. Теперь ей нужно поступиться правдой ради спасения сына от преступника-психопата.
" Мощный, психологический триллер отличается интересным, продуманным сюжетом, и любителям жанра не стоит его пропускать - сценарий по книге Джорджа Доуса Грина написал Тед Толли ("Молчание ягнят")

Режиссер: Брайан Гибсон
Актеры: Деми Мур /Demi Moore/, Алек Болдуин /Alec Baldwin/Джозеф Гордон-Левитт /Joseph Gordon-Levitt/, Энн Хэч /Anne Heche/, Джеймс Гандольфини /James Gandolfini/, Линдсэй Краузе /Lindsay Crouse/, Энтони Ло Бьянко /Anthony Lo Bianco/, Майкл Константин /Michael Constantine/, Мэтт Крэйвен /Matt Craven/, Тодд Сасмэн, Майкл Рисполи /Michael Rispoli/, Джули Холстон /Julie Halston/
Продолжительность: 01:53:16
Перевод: Профессиональный (полное дублирование), Авторский (Одноголосый) ПЕТР КАРЦЕВ

______________________________
Видеокодек: Xvid
Битрейт видео: ~2202 Kbps
Размер кадра: 720x304
Качество видео: DVDRip
Аудио 1: AC3, 2 ch, 192.00 kbps.............Профессиональный (полное дублирование)
Аудио 2: AC3, 2 ch, 192.00 kbps.............Авторский (Одноголосый) ПЕТР КАРЦЕВ
-

MI

General
Complete name : Juror, The.(1996).DVDRip.avi
Format : AVI
Format/Info : Audio Video Interleave
Format profile : OpenDML
File size : 2.06 GiB
Duration : 1h 53mn
Overall bit rate : 2 605 Kbps
Writing application : VirtualDubMod 1.5.10.2 (build 2542/release)
Writing library : VirtualDubMod build 2542/release
Video
ID : 0
Format : MPEG-4 Visual
Format profile : Advanced Simple@L5
Format settings, BVOP : 1
Format settings, QPel : No
Format settings, GMC : No warppoints
Format settings, Matrix : Custom
Codec ID : XVID
Codec ID/Hint : XviD
Duration : 1h 53mn
Bit rate : 2 202 Kbps
Width : 720 pixels
Height : 304 pixels
Display aspect ratio : 2.35:1
Frame rate : 25.000 fps
Color space : YUV
Chroma subsampling : 4:2:0
Bit depth : 8 bits
Scan type : Progressive
Compression mode : Lossy
Bits/(Pixel*Frame) : 0.402
Stream size : 1.74 GiB (85%)
Writing library : XviD 73
Audio #1
ID : 1
Format : AC-3
Format/Info : Audio Coding 3
Mode extension : CM (complete main)
Format settings, Endianness : Big
Codec ID : 2000
Duration : 1h 53mn
Bit rate mode : Constant
Bit rate : 192 Kbps
Channel(s) : 2 channels
Channel positions : Front: L R
Sampling rate : 48.0 KHz
Bit depth : 16 bits
Compression mode : Lossy
Stream size : 156 MiB (7%)
Alignment : Split accross interleaves
Interleave, duration : 40 ms (1.00 video frame)
Interleave, preload duration : 500 ms
Audio #2
ID : 2
Format : AC-3
Format/Info : Audio Coding 3
Format profile : Dolby Digital
Mode extension : CM (complete main)
Format settings, Endianness : Big
Codec ID : 2000
Duration : 1h 53mn
Bit rate mode : Constant
Bit rate : 192 Kbps
Channel(s) : 2 channels
Channel positions : Front: L R
Sampling rate : 48.0 KHz
Bit depth : 16 bits
Compression mode : Lossy
Stream size : 156 MiB (7%)
Alignment : Split accross interleaves
Interleave, duration : 40 ms (1.00 video frame)
Interleave, preload duration : 500 ms
-
Время раздачи: с 23:00 до 6:30

[Цитировать]



Показать сообщения:    

Текущее время: 08-Дек 15:01

Часовой пояс: UTC + 3


Вы не можете начинать темы
Вы не можете отвечать на сообщения
Вы не можете редактировать свои сообщения
Вы не можете удалять свои сообщения
Вы не можете голосовать в опросах
Вы не можете прикреплять файлы к сообщениям
Вы не можете скачивать файлы

!ВНИМАНИЕ!
Сайт не предоставляет электронные версии произведений, а занимается лишь коллекционированием и каталогизацией ссылок, присылаемых и публикуемых на форуме нашими читателями. Если вы являетесь правообладателем какого-либо представленного материала и не желаете, чтобы ссылка на него находилась в нашем каталоге, свяжитесь с нами, и мы незамедлительно удалим ее. Файлы для обмена на трекере предоставлены пользователями сайта, и администрация не несет ответственности за их содержание. Просьба не заливать файлы, защищенные авторскими правами, а также файлы нелегального содержания!