[ Сегодня идет свободное скачивание без начисления Download ]


Статистика раздачи
Нет
 
   
 
Top  
 
 
-Жестокий ринг / Ringul (1983) DVDRip- Русское название: Жестокий ринг
Оригинальное название: Ringul
Год выпуска: 1983
Жанр: Драма, Военный
Описание фильма:
Герой фильма, шофер на международной автолинии, во время одного из рейсов попадает в Западный Берлин. В прошлом боксер-профессионал, он решает принять участие в матче. Его противником будет непобедимый Голем, в котором шофер узнает охранника фашистского концлагеря, где он был узником в годы войны.
Унтерштурмфюрер Гебауэр и заключенный румын Андрей. Немец мечтал о короне чемпиона мира по боксу, но ему не хватало практики боев, а этот узник - бывший боксер. И начались каждодневные поединки, каждый из которых был настоящим избиением: откормленный, холеный фашист - против узника... Прошли годы...
Эта версия длиннее, чем шедшая на экранах СССР, поэтому в некоторых местах перевод отсутствует.
Режиссер: Серджиу Николаеску / Sergiu Nicolaescu
Актеры: Серджиу Николаеску, Марин Морару, Константин Брынзя, Михай Богица, Мариан Кулиняк, Махаил Воглер, Летиция Габриэлли, Юрие Дарие, Себастьян Папаяни
Продолжительность: 1: 37: 21
Перевод: Одноголосый закадровый
Автор перевода: Киностудия им. М. Горького / озвучивает актер Сергей Мартынов
Видеокодек: MPEG-4 AVC/H.264
Битрейт видео: ~600 kb/s
Размер кадра: 640 x 360
Качество видео: DVDRip
Аудиокодек: AAC 2.0
Битрейт аудио: 128 kb/s

MediaInfo:

Общее
Полное имя : Жестокий ринг (1983).mp4
Формат : MPEG-4
Профиль формата : Base Media
Идентификатор кодека : isom
Размер файла : 508 Мбайт
Продолжительность : 1 ч. 37 м.
Режим общего битрейта : Переменный
Общий поток : 729 Кбит/сек
Программа кодирования : Lavf52.40.0
Видео
Идентификатор : 1
Формат : AVC
Формат/Информация : Advanced Video Codec
Профиль формата : High@L3.0
Параметр CABAC формата : Да
Параметр ReFrames формата : 3 кадра
Идентификатор кодека : avc1
Идентификатор кодека/Информация : Advanced Video Coding
Продолжительность : 1 ч. 37 м.
Битрейт : 600 Кбит/сек
Ширина : 640 пикселей
Высота : 360 пикселей
Соотношение сторон : 16:9
Режим частоты кадров : Постоянный
Частота кадров : 25,000 кадров/сек
Цветовое пространство : YUV
Субдискретизация насыщенности : 4:2:0
Битовая глубина : 8 бит
Тип развёртки : Прогрессивная
Бит/(Пиксели*Кадры) : 0.078
Размер потока : 415 Мбайт (82%)
Библиотека кодирования : x264 core 79
Настройки программы : cabac=1 / ref=3 / deblock=1:0:0 / analyse=0x3:0x113 / me=hex / subme=7 / psy=1 / psy_rd=1.0:0.0 / mixed_ref=1 / me_range=16 / chroma_me=1 / trellis=1 / 8x8dct=1 / cqm=0 / deadzone=21,11 / chroma_qp_offset=-2 / threads=24 / nr=0 / decimate=1 / mbaff=0 / constrained_intra=0 / bframes=3 / b_pyramid=0 / b_adapt=1 / b_bias=0 / direct=1 / wpredb=32 / wpredp=2 / keyint=250 / keyint_min=25 / scenecut=40 / rc_lookahead=40 / rc=abr / mbtree=1 / bitrate=600 / ratetol=6.7 / qcomp=0.60 / qpmin=10 / qpmax=51 / qpstep=4 / ip_ratio=1.41 / aq=1:1.00
Аудио
Идентификатор : 2
Формат : AAC
Формат/Информация : Advanced Audio Codec
Профиль формата : LC
Идентификатор кодека : 40
Продолжительность : 1 ч. 37 м.
Вид битрейта : Переменный
Битрейт : 128 Кбит/сек
Каналы : 2 канала
Расположение каналов : Front: L R
Частота : 44,1 КГц
Метод сжатия : С потерями
Задержка видео : 40 мс.
Размер потока : 89,1 Мбайт (18%)
Скриншоты:

Время раздачи: 8 - 22

[Цитировать]



Показать сообщения:    

Текущее время: 20-Фев 11:35

Часовой пояс: UTC + 3


Вы не можете начинать темы
Вы не можете отвечать на сообщения
Вы не можете редактировать свои сообщения
Вы не можете удалять свои сообщения
Вы не можете голосовать в опросах
Вы не можете прикреплять файлы к сообщениям
Вы не можете скачивать файлы

!ВНИМАНИЕ!
Сайт не предоставляет электронные версии произведений, а занимается лишь коллекционированием и каталогизацией ссылок, присылаемых и публикуемых на форуме нашими читателями. Если вы являетесь правообладателем какого-либо представленного материала и не желаете, чтобы ссылка на него находилась в нашем каталоге, свяжитесь с нами, и мы незамедлительно удалим ее. Файлы для обмена на трекере предоставлены пользователями сайта, и администрация не несет ответственности за их содержание. Просьба не заливать файлы, защищенные авторскими правами, а также файлы нелегального содержания!