[ Сегодня идет свободное скачивание без начисления Download ]


Статистика раздачи
Нет
 
   
 
Top  
 
 
-Вероника решает умереть / Veronika Decides to Die (2009) HDRip- Русское название: Вероника решает умереть
Оригинальное название: Veronika Decides to Die
Год выпуска: 2009
Производство: США
Жанр: Драма
Описание фильма:
После неудавшейся попытки самоубийства Вероника оказывается в сумасшедшем доме. Когда она окончательно приходит в себя, врачи сообщают ей неутешительную новость: у нее неисправимые проблемы с сердцем и жить ей осталось не так уж и долго. Удастся ли Веронике победить болезнь и вновь обрести желание жить и любить…
Режиссер: Эмили Янг / Emily Young
Актеры: Сара Мишель Геллар, Джонатан Такер, Эрика Кристенсен, Флоренция Лозаньо, Рина Оуэн, Эрика Гимпел, Виктор Слезак, Барбара Зукова, Виктор Штейнбах, Мелисса Лео...
Продолжительность: 01:42:53
Перевод: Дублированный
Язык субтитров: Русские, Английские
Вид субтитров: Вшитые

Дата мировой премьеры: 16 мая 2009
Дата российской премьеры: 11 марта 2010
Дата выхода DVD релиза: 8 апреля 2010
Бюджет: $4 000 000
Качество: HDRip-AVC
Формат: MKV
Видео кодек: H.264
Аудио кодек: AC3
Видео: 944x400 (2.35:1), 24.000 fps, H.264 ~1132 kbps avg, 0.120 bit/pixel
Аудио:
Русский, 48 kHz, Dolby AC3, 6 ch, 448.00 kbps Constant,
Английский, 48 kHz, Dolby AC3, 6 ch, 448.00 kbps Constant

MediaInfo:

General
Unique ID : 202445146617615765082486871964907226743 (0x984D8459E4DAE84280325992488C4677)
Complete name : J:\Вероника решает умереть Veronika Decides to Die (2009).mkv
Format : Matroska
Format version : Version 2
File size : 1.46 GiB
Duration : 1h 42mn
Overall bit rate : 2 028 Kbps
Movie name : avproh
Encoded date : UTC 2010-06-14 19:12:45
Writing application : mkvmerge v4.0.0 ('The Stars were mine') сборка от Jun 6 2010 16:18:42
Writing library : libebml v1.0.0 + libmatroska v1.0.0
Video
ID : 1
Format : AVC
Format/Info : Advanced Video Codec
Format profile : High@L4.1
Format settings, CABAC : Yes
Format settings, ReFrames : 11 frames
Codec ID : V_MPEG4/ISO/AVC
Duration : 1h 42mn
Bit rate : 1 132 Kbps
Width : 944 pixels
Height : 400 pixels
Display aspect ratio : 2.35:1
Frame rate mode : Constant
Frame rate : 24.000 fps
Color space : YUV
Chroma subsampling : 4:2:0
Bit depth : 8 bits
Scan type : Progressive
Bits/(Pixel*Frame) : 0.125
Stream size : 804 MiB (54%)
Writing library : x264 core 98 r1629 2e81ce1
Encoding settings : cabac=1 / ref=11 / deblock=1:-2:-1 / analyse=0x3:0x113 / me=umh / subme=9 / psy=1 / psy_rd=1.00:0.10 / mixed_ref=1 / me_range=32 / chroma_me=1 / trellis=1 / 8x8dct=1 / cqm=0 / deadzone=21,11 / fast_pskip=1 / chroma_qp_offset=-3 / threads=4 / sliced_threads=0 / nr=0 / decimate=1 / interlaced=0 / constrained_intra=0 / bframes=6 / b_pyramid=2 / b_adapt=1 / b_bias=0 / direct=3 / weightb=1 / weightp=2 / keyint=250 / keyint_min=25 / scenecut=40 / intra_refresh=0 / rc_lookahead=80 / rc=2pass / mbtree=1 / bitrate=1132 / ratetol=1.0 / qcomp=0.60 / qpmin=10 / qpmax=51 / qpstep=4 / cplxblur=20.0 / qblur=0.5 / ip_ratio=1.40 / aq=1:1.00
Language : English
Default : No
Forced : No
Audio #1
ID : 2
Format : AC-3
Format/Info : Audio Coding 3
Mode extension : CM (complete main)
Format settings, Endianness : Big
Codec ID : A_AC3
Duration : 1h 42mn
Bit rate mode : Constant
Bit rate : 448 Kbps
Channel(s) : 6 channels
Channel positions : Front: L C R, Side: L R, LFE
Sampling rate : 48.0 KHz
Bit depth : 16 bits
Compression mode : Lossy
Stream size : 330 MiB (22%)
Title : AC3 5.1 448 kbps Dub
Language : Russian
Default : Yes
Forced : No
Audio #2
ID : 3
Format : AC-3
Format/Info : Audio Coding 3
Mode extension : CM (complete main)
Format settings, Endianness : Big
Codec ID : A_AC3
Duration : 1h 42mn
Bit rate mode : Constant
Bit rate : 448 Kbps
Channel(s) : 6 channels
Channel positions : Front: L C R, Side: L R, LFE
Sampling rate : 48.0 KHz
Bit depth : 16 bits
Compression mode : Lossy
Stream size : 330 MiB (22%)
Title : AC3 5.1 448 kbps Eng
Language : English
Default : No
Forced : No
Text #1
ID : 4
Format : UTF-8
Codec ID : S_TEXT/UTF8
Codec ID/Info : UTF-8 Plain Text
Title : Sub Rus
Language : Russian
Default : No
Forced : No
Text #2
ID : 5
Format : UTF-8
Codec ID : S_TEXT/UTF8
Codec ID/Info : UTF-8 Plain Text
Title : Sub Eng
Language : English
Default : No
Forced : No
Скриншоты: Время раздачи: С 23:00 до 8:30 (24/7 - круглосуточно)

[Цитировать]



Показать сообщения:    

Текущее время: 10-Дек 17:48

Часовой пояс: UTC + 3


Вы не можете начинать темы
Вы не можете отвечать на сообщения
Вы не можете редактировать свои сообщения
Вы не можете удалять свои сообщения
Вы не можете голосовать в опросах
Вы не можете прикреплять файлы к сообщениям
Вы не можете скачивать файлы

!ВНИМАНИЕ!
Сайт не предоставляет электронные версии произведений, а занимается лишь коллекционированием и каталогизацией ссылок, присылаемых и публикуемых на форуме нашими читателями. Если вы являетесь правообладателем какого-либо представленного материала и не желаете, чтобы ссылка на него находилась в нашем каталоге, свяжитесь с нами, и мы незамедлительно удалим ее. Файлы для обмена на трекере предоставлены пользователями сайта, и администрация не несет ответственности за их содержание. Просьба не заливать файлы, защищенные авторскими правами, а также файлы нелегального содержания!