[ Сегодня идет свободное скачивание без начисления Download ]


Статистика раздачи
Нет
 
   
 
Top  
 
 
-Коэффициент интеллекта / I.Q. (1994) DVDRip [H.264]- Страна: США
Русское название: Коэффициент интеллекта
Оригинальное название: I.Q.
Год выпуска: 1994
Жанр: Комедия, Мелодрама
Описание фильма:
В роли свахи выступает сам Альберт Эйнштейн. В его племянницу влюбился простой механик, очень симпатичный парень. А племянница обручена с занудным и неприятным ученым. Эйнштейн хочет, чтобы она была с механиком, который лихо прокатил его на мотоцикле.
Для того, чтобы она обратила на него внимание, он открыл ему формулу холодного термоядерного синтеза для ракетных двигателей, и тот произвел сенсацию во всем мире. Но долго такой обман длиться не может. Сохранится ли любовь после разоблачения?
Режиссер: Фрэд Шепайси / Fred Schepisi
Актеры: Тим Роббинс, Мег Райан, Уолтер Мэттау, Лу Джекоби, Джин Сэкс, Джозеф Maэp, Стивен Фрай, Тони Шэлуб, Фрэнк Уэйли, Чарльз Дёрнинг
Продолжительность: 01:35:47
Перевод: Многоголосый закадровый
Релиз группы: Underverse

Качество: DVDRip by GUree
Видео: x264, 720x432@1007x432, 2430 Kbps, 29.970 fps, Bits/(Pixel*Frame): 0.267
Аудио 1: AC3 2.0, 192 кб/с, Русский, Одноголосный закадровый (А. Гаврилов)
Аудио 2: AC3 2.0, 192 кб/с, Русский, Многоголосый закадровый
Аудио 3: AC3 5.1, 384 кб/с, Original, English
Субтитры: Русские, Английские
Навигация по главам: нет
Сэмпл: Ссылка

Mediainfo

General
Complete name : Коэффициент интеллекта. I.Q. 1994. (хор. комедийная мелодрама от Fred Schepisi). DVDRip-AVC.mkv
Format : Matroska
Format version : Version 2
File size : 2.18 GiB
Duration : 1h 35mn
Overall bit rate : 3 264 Kbps
Movie name : -=GUree=-
Encoded date : UTC 2010-04-27 02:18:32
Writing application : mkvmerge v3.2.0 ('Beginnings') built on Feb 12 2010 16:46:17
Writing library : libebml v0.7.9 + libmatroska v0.8.1
Video
ID : 1
Format : AVC
Format/Info : Advanced Video Codec
Format profile : High@L4.1
Format settings, CABAC : Yes
Format settings, ReFrames : 10 frames
Codec ID : V_MPEG4/ISO/AVC
Duration : 1h 35mn
Bit rate : 2 493 Kbps
Width : 720 pixels
Height : 432 pixels
Display aspect ratio : 2.35:1
Frame rate mode : Constant
Frame rate : 29.970 fps
Color space : YUV
Chroma subsampling : 4:2:0
Bit depth : 8 bits
Scan type : Progressive
Bits/(Pixel*Frame) : 0.267
Stream size : 1.63 GiB (74%)
Writing library : x264 core 79 r1342kMod e8501ef
Encoding settings : cabac=1 / ref=10 / deblock=1:-2:-1 / analyse=0x3:0x113 / me=tesa / subme=10 / psy=1 / psy_rd=1.0:0.4 / mixed_ref=1 / me_range=32 / chroma_me=1 / trellis=2 / 8x8dct=1 / cqm=0 / deadzone=21,11 / chroma_qp_offset=-4 / threads=6 / nr=0 / decimate=0 / mbaff=0 / constrained_intra=0 / bframes=8 / b_pyramid=0 / b_adapt=2 / b_bias=0 / direct=3 / wpredb=1 / wpredp=2 / keyint=250 / keyint_min=25 / scenecut=40 / rc_lookahead=60 / rc=2pass / mbtree=1 / bitrate=2493 / ratetol=1.0 / qcomp=0.60 / qpmin=10 / qpmax=51 / qpstep=4 / cplxblur=20.0 / qblur=0.5 / vbv_maxrate=50000 / vbv_bufsize=50000 / ip_ratio=1.40 / aq=1:1.00
Language : English
Default : No
Forced : No
Audio #1
ID : 2
Format : AC-3
Format/Info : Audio Coding 3
Mode extension : CM (complete main)
Format settings, Endianness : Big
Codec ID : A_AC3
Duration : 1h 35mn
Bit rate mode : Constant
Bit rate : 192 Kbps
Channel(s) : 2 channels
Channel positions : Front: L R
Sampling rate : 48.0 KHz
Bit depth : 16 bits
Compression mode : Lossy
Stream size : 132 MiB (6%)
Title : AC3 2.0 192Kb/s
Language : Russian
Default : Yes
Forced : No
Audio #2
ID : 3
Format : AC-3
Format/Info : Audio Coding 3
Format profile : Dolby Digital
Mode extension : CM (complete main)
Format settings, Endianness : Big
Codec ID : A_AC3
Duration : 1h 35mn
Bit rate mode : Constant
Bit rate : 192 Kbps
Channel(s) : 2 channels
Channel positions : Front: L R
Sampling rate : 48.0 KHz
Bit depth : 16 bits
Compression mode : Lossy
Stream size : 132 MiB (6%)
Title : AC3 2.0 192Kb/s
Language : Russian
Default : No
Forced : No
Audio #3
ID : 4
Format : AC-3
Format/Info : Audio Coding 3
Mode extension : CM (complete main)
Format settings, Endianness : Big
Codec ID : A_AC3
Duration : 1h 35mn
Bit rate mode : Constant
Bit rate : 384 Kbps
Channel(s) : 6 channels
Channel positions : Front: L C R, Side: L R, LFE
Sampling rate : 48.0 KHz
Bit depth : 16 bits
Compression mode : Lossy
Stream size : 263 MiB (12%)
Title : AC3 5.1 384Kb/s
Language : English
Default : No
Forced : No
Text #1
ID : 5
Format : UTF-8
Codec ID : S_TEXT/UTF8
Codec ID/Info : UTF-8 Plain Text
Language : Russian
Default : No
Forced : No
Text #2
ID : 6
Format : UTF-8
Codec ID : S_TEXT/UTF8
Codec ID/Info : UTF-8 Plain Text
Language : English
Default : No
Forced : No
Скриншоты:


Время раздачи: С 10:00 до 17:00 (мск)

[Цитировать]



Показать сообщения:    

Текущее время: 09-Дек 10:46

Часовой пояс: UTC + 3


Вы не можете начинать темы
Вы не можете отвечать на сообщения
Вы не можете редактировать свои сообщения
Вы не можете удалять свои сообщения
Вы не можете голосовать в опросах
Вы не можете прикреплять файлы к сообщениям
Вы не можете скачивать файлы

!ВНИМАНИЕ!
Сайт не предоставляет электронные версии произведений, а занимается лишь коллекционированием и каталогизацией ссылок, присылаемых и публикуемых на форуме нашими читателями. Если вы являетесь правообладателем какого-либо представленного материала и не желаете, чтобы ссылка на него находилась в нашем каталоге, свяжитесь с нами, и мы незамедлительно удалим ее. Файлы для обмена на трекере предоставлены пользователями сайта, и администрация не несет ответственности за их содержание. Просьба не заливать файлы, защищенные авторскими правами, а также файлы нелегального содержания!