[ Сегодня идет свободное скачивание без начисления Download ]


Статистика раздачи
Нет
 
   
 
Top  
 
 
Синистер / Sinister«Увидевший его не спасётся.» Год выпуска: 2012
Страна: США
Производство: Alliance Films, Automatik Entertainment, Blumhouse Productions, IM Global, Possessed Pictures
Жанр: ужасы, детектив
Режиссер: Скотт Дерриксон
В ролях: Итан Хоук, Джульет Райлэнс, Фред Долтон Томпсон, Джеймс Рэнсон, Майкл Холл Д’Аддарио, Клер Фоли, Роб Райли, Тэвис Смайли, Джанет Заппала, Виктория Ли
Перевод: Профессиональный (полное дублирование)
Субтитры: Отсутствуют
Описание: Вместе с семьей автор детективов поселяется в небольшом городке, в доме, где почти год назад развернулась леденящая душу трагедия — были убиты все жильцы. Писатель случайно находит видеозаписи, которые являются ключом к тайне преступления. Но ничто не дается даром: в доме начинают происходить жуткие вещи и теперь под угрозой жизнь его близких. Они столкнулись с чем-то, от чего нет спасения… Качество: DVDRip-AVC | исх. Sinister.2012.D.DVD5 |
Продолжительность: 01:45:09
Формат: MKV
Видео кодек: H.264
Аудио кодек: АС3
Видео: [email protected] (2.40:1), 23,976 fps, H.264, ~1532 kbps avg, 0.199 bit/pixel
Аудио: 48 kHz, AC3 Dolby Digital, 6 (L,C,R,l,r) + LFE ch , ~448.00 kbps avg
Премьера (мир): 11 марта 2012
Премьера (РФ): 11 октября 2012, «Top Film Distribution»
Релиз на DVD: 22 ноября 2012, «Новый Диск», «New Dream media»

Media Info

General
Unique ID                        : 182160994695453617541963679662421390324 (0x890AEE72BE1E25F89AF2221E9ED933F4)
Complete name                    : E:\Sinister.2012.DUB.DVDRip.mkv
Format                           : Matroska
File size                        : 1.46 GiB
Duration                         : 1h 45mn
Overall bit rate                 : 1 981 Kbps
Movie name                       : Sinister (2012) - Vaippp
Encoded date                     : UTC 2012-11-23 07:56:58
Writing application              : mkvmerge v5.8.0 ('No Sleep / Pillow') built on Sep  2 2012 15:37:04
Writing library                  : libebml v1.2.3 + libmatroska v1.3.0
Video
ID                               : 1
Format                           : AVC
Format/Info                      : Advanced Video Codec
Format profile                   : [email protected]
Format settings, CABAC           : Yes
Format settings, ReFrames        : 14 frames
Codec ID                         : V_MPEG4/ISO/AVC
Duration                         : 1h 45mn
Bit rate                         : 1 532 Kbps
Width                            : 720 pixels
Height                           : 428 pixels
Display aspect ratio             : 2.40:1
Frame rate                       : 25.000 fps
Color space                      : YUV
Chroma subsampling               : 4:2:0
Bit depth                        : 8 bits
Scan type                        : Progressive
Bits/(Pixel*Frame)               : 0.199
Stream size                      : 1.10 GiB (75%)
Title                            : Vaippp
Writing library                  : x264 core 129 r2230 1cffe9f
Encoding settings                : cabac=1 / ref=14 / deblock=1:-1:-1 / analyse=0x3:0x133 / me=umh / subme=9 / psy=1 / psy_rd=1.10:0.10 / mixed_ref=1 / me_range=24 / chroma_me=1 / trellis=1 / 8x8dct=1 / cqm=0 / deadzone=21,11 / fast_pskip=0 / chroma_qp_offset=-3 / threads=12 / lookahead_threads=2 / sliced_threads=0 / nr=0 / decimate=0 / interlaced=0 / bluray_compat=0 / constrained_intra=0 / bframes=9 / b_pyramid=2 / b_adapt=2 / b_bias=0 / direct=3 / weightb=1 / open_gop=0 / weightp=2 / keyint=250 / keyint_min=25 / scenecut=40 / intra_refresh=0 / rc_lookahead=60 / rc=2pass / mbtree=0 / bitrate=1532 / ratetol=1.0 / qcomp=0.65 / qpmin=0 / qpmax=69 / qpstep=4 / cplxblur=20.0 / qblur=0.5 / vbv_maxrate=8000 / vbv_bufsize=12000 / nal_hrd=none / ip_ratio=1.40 / pb_ratio=1.30 / aq=1:0.60
Language                         : English
Color primaries                  : BT.470-6 System B, BT.470-6 System G, BT.601-6 625, BT.1358 625, BT.1700 625 PAL, BT.1700 625 SECAM
Transfer characteristics         : BT.470-6 System B, BT.470-6 System G
Matrix coefficients              : BT.470-6 System B, BT.470-6 System G, BT.601-6 625, BT.1358 625, BT.1700 625 PAL, BT.1700 625 SECAM, IEC 61966-2-4 601
Audio
ID                               : 2
Format                           : AC-3
Format/Info                      : Audio Coding 3
Mode extension                   : CM (complete main)
Codec ID                         : A_AC3
Duration                         : 1h 45mn
Bit rate mode                    : Constant
Bit rate                         : 448 Kbps
Channel(s)                       : 6 channels
Channel positions                : Front: L C R, Side: L R, LFE
Sampling rate                    : 48.0 KHz
Bit depth                        : 16 bits
Compression mode                 : Lossy
Stream size                      : 337 MiB (23%)
Title                            : [email protected]
Language                         : Russian
Menu
00:00:00.000                     : en:Chapter 01
00:10:00.120                     : en:Chapter 02
00:19:59.960                     : en:Chapter 03
00:29:59.840                     : en:Chapter 04
00:40:00.120                     : en:Chapter 05
00:49:59.760                     : en:Chapter 06
01:00:00.080                     : en:Chapter 07
01:39:20.080                     : en:Chapter 08
01:45:09.280                     : en:Chapter 09

Скриншоты



[Цитировать]

Топик был перенесен из форума Новинки кинопроката в форум Ужасы
Henkok



Показать сообщения:    

Текущее время: 05-Дек 17:40

Часовой пояс: UTC + 3


Вы не можете начинать темы
Вы не можете отвечать на сообщения
Вы не можете редактировать свои сообщения
Вы не можете удалять свои сообщения
Вы не можете голосовать в опросах
Вы не можете прикреплять файлы к сообщениям
Вы не можете скачивать файлы

!ВНИМАНИЕ!
Сайт не предоставляет электронные версии произведений, а занимается лишь коллекционированием и каталогизацией ссылок, присылаемых и публикуемых на форуме нашими читателями. Если вы являетесь правообладателем какого-либо представленного материала и не желаете, чтобы ссылка на него находилась в нашем каталоге, свяжитесь с нами, и мы незамедлительно удалим ее. Файлы для обмена на трекере предоставлены пользователями сайта, и администрация не несет ответственности за их содержание. Просьба не заливать файлы, защищенные авторскими правами, а также файлы нелегального содержания!