[ Сегодня идет свободное скачивание без начисления Download ]


Статистика раздачи
Нет
 
   
 
Top  
 
 
-Неспящие в Сиэтле / Sleepless in Seattle (1993) DVDRip [H.264]- Страна: США
Русское название: Неспящие в Сиэтле
Оригинальное название: Sleepless in Seattle
Год выпуска: 1993
Жанр: Комедия, Мелодрама, Драма
Описание фильма:
Поздней ночью радио доносит голос маленького ребенка, который ищет маму. Сотни женщин со всей страны откликаются на этот зов, и только одна из них понимает — отец ребенка и она — предназначены друг для друга, пусть даже между ними сотни миль. И не беда, что она обручена, а ее новый избранник еще не знает о ней. Его единственная и далекая ждет и ищет его, влюбившись с первого звука его голоса.
Режиссер: Нора Эфрон / Nora Ephron
Актеры: Том Хэнкс, Мег Райан, Росс Мэлинджер, Рита Уилсон, Билл Пуллман, Виктор Гарбер, Том Риис Фаррелл, Кэри Лоуэлл, Роб Райнер, Барбара Гэррик.
Продолжительность: 01:40:51
Перевод: Дубляж, Многоголосый закадровый, Одноголосный закадровый
Релиз группы: Underverse

Качество: DVDRip by GUree
Формат: MKV
Видео: x264, [email protected], 2332 Kbps, 25.000 fps, Bits/(Pixel*Frame): 0.235
Аудио 1: AC3 2.0, 2 channels, Front: L R, 192 кб/с, 48.0 KHz, Русский, Дубляж
Аудио 2: AC3 2.0, 2 channels, Front: L R, 192 кб/с, 48.0 KHz, Русский, Многоголосый закадровый
Аудио 3: AC3 2.0, 2 channels, Front: L R, 192 кб/с, 48.0 KHz, Русский, Одноголосный закадровый (А. Михалёв)
Аудио 4: AC3 2.0, 2 channels, Front: L R, 192 кб/с, 48.0 KHz, Original, English
Субтитры: Русские, Английские
Навигация по главам: нет
Сэмпл: Ссылка

Mediainfo

Complete name : Неспящие в Сиэтле. Sleepless in Seattle. 1993. (хор. комедийная мелодрама). DVDRip-AVC.mkv
Format : Matroska
Format version : Version 2
File size : 2.19 GiB
Duration : 1h 40mn
Overall bit rate : 3 103 Kbps
Movie name : -=GUree=-
Encoded date : UTC 2010-05-20 05:06:00
Writing application : mkvmerge v3.3.0 ('Language') строится на Apr 12 2010 10:07:49
Writing library : libebml v0.8.0 + libmatroska v0.9.0
Video
ID : 1
Format : AVC
Format/Info : Advanced Video Codec
Format profile : [email protected]
Format settings, CABAC : Yes
Format settings, ReFrames : 8 frames
Codec ID : V_MPEG4/ISO/AVC
Duration : 1h 40mn
Bit rate : 2 332 Kbps
Width : 720 pixels
Height : 552 pixels
Display aspect ratio : 1.85:1
Frame rate mode : Constant
Frame rate : 25.000 fps
Color space : YUV
Chroma subsampling : 4:2:0
Bit depth : 8 bits
Scan type : Progressive
Bits/(Pixel*Frame) : 0.235
Stream size : 1.60 GiB (73%)
Writing library : x264 core 79 r1342kMod e8501ef
Encoding settings : cabac=1 / ref=8 / deblock=1:-2:-1 / analyse=0x3:0x113 / me=tesa / subme=10 / psy=1 / psy_rd=1.0:0.4 / mixed_ref=1 / me_range=32 / chroma_me=1 / trellis=2 / 8x8dct=1 / cqm=0 / deadzone=21,11 / chroma_qp_offset=-4 / threads=6 / nr=0 / decimate=0 / mbaff=0 / constrained_intra=0 / bframes=6 / b_pyramid=0 / b_adapt=2 / b_bias=0 / direct=3 / wpredb=1 / wpredp=2 / keyint=250 / keyint_min=25 / scenecut=40 / rc_lookahead=60 / rc=2pass / mbtree=1 / bitrate=2332 / ratetol=1.0 / qcomp=0.60 / qpmin=10 / qpmax=51 / qpstep=4 / cplxblur=20.0 / qblur=0.5 / vbv_maxrate=50000 / vbv_bufsize=50000 / ip_ratio=1.40 / aq=1:1.00
Language : English
Default : No
Forced : No
Audio #1
ID : 2
Format : AC-3
Format/Info : Audio Coding 3
Mode extension : CM (complete main)
Format settings, Endianness : Big
Codec ID : A_AC3
Duration : 1h 40mn
Bit rate mode : Constant
Bit rate : 192 Kbps
Channel(s) : 2 channels
Channel positions : Front: L R
Sampling rate : 48.0 KHz
Bit depth : 16 bits
Compression mode : Lossy
Stream size : 138 MiB (6%)
Title : AC3 2.0 192Kb/s (Dub)
Language : Russian
Default : Yes
Forced : No
Audio #2
ID : 3
Format : AC-3
Format/Info : Audio Coding 3
Mode extension : CM (complete main)
Format settings, Endianness : Big
Codec ID : A_AC3
Duration : 1h 40mn
Bit rate mode : Constant
Bit rate : 192 Kbps
Channel(s) : 2 channels
Channel positions : Front: L R
Sampling rate : 48.0 KHz
Bit depth : 16 bits
Compression mode : Lossy
Stream size : 138 MiB (6%)
Title : AC3 2.0 192Kb/s (MVO)
Language : Russian
Default : No
Forced : No
Audio #3
ID : 4
Format : AC-3
Format/Info : Audio Coding 3
Mode extension : CM (complete main)
Format settings, Endianness : Big
Codec ID : A_AC3
Duration : 1h 40mn
Bit rate mode : Constant
Bit rate : 192 Kbps
Channel(s) : 2 channels
Channel positions : Front: L R
Sampling rate : 48.0 KHz
Bit depth : 16 bits
Compression mode : Lossy
Stream size : 138 MiB (6%)
Title : AC3 2.0 192Kb/s (Mihalev)
Language : Russian
Default : No
Forced : No
Audio #4
ID : 5
Format : AC-3
Format/Info : Audio Coding 3
Format profile : Dolby Digital
Mode extension : CM (complete main)
Format settings, Endianness : Big
Codec ID : A_AC3
Duration : 1h 40mn
Bit rate mode : Constant
Bit rate : 192 Kbps
Channel(s) : 2 channels
Channel positions : Front: L R
Sampling rate : 48.0 KHz
Bit depth : 16 bits
Compression mode : Lossy
Stream size : 138 MiB (6%)
Title : AC3 2.0 192Kb/s
Language : English
Default : No
Forced : No
Text #1
ID : 6
Format : UTF-8
Codec ID : S_TEXT/UTF8
Codec ID/Info : UTF-8 Plain Text
Language : Russian
Default : No
Forced : No
Text #2
ID : 7
Format : UTF-8
Codec ID : S_TEXT/UTF8
Codec ID/Info : UTF-8 Plain Text
Language : English
Default : No
Forced : No
Скриншоты:


Время раздачи: С 10:00 до 17:00 (мск)

[Цитировать]



Показать сообщения:    

Текущее время: 05-Дек 13:32

Часовой пояс: UTC + 3


Вы не можете начинать темы
Вы не можете отвечать на сообщения
Вы не можете редактировать свои сообщения
Вы не можете удалять свои сообщения
Вы не можете голосовать в опросах
Вы не можете прикреплять файлы к сообщениям
Вы не можете скачивать файлы

!ВНИМАНИЕ!
Сайт не предоставляет электронные версии произведений, а занимается лишь коллекционированием и каталогизацией ссылок, присылаемых и публикуемых на форуме нашими читателями. Если вы являетесь правообладателем какого-либо представленного материала и не желаете, чтобы ссылка на него находилась в нашем каталоге, свяжитесь с нами, и мы незамедлительно удалим ее. Файлы для обмена на трекере предоставлены пользователями сайта, и администрация не несет ответственности за их содержание. Просьба не заливать файлы, защищенные авторскими правами, а также файлы нелегального содержания!