[ Сегодня идет свободное скачивание без начисления Download ]


Статистика раздачи
Нет
 
   
 
Top  
 
 
-Босиком по мостовой / Barfuss (2005) DVDRip [H.264]- Страна: Германия
Русское название: Босиком по мостовой
Оригинальное название: Barfuss
Год выпуска: 2005
Жанр: Комедия, Мелодрама, Драма
Описание фильма:
На что ты способен ради любви? На самом деле Ника Келлера в настоящее время занимают совсем другие вопросы. Он не удерживается ни на одном рабочем месте, и его семья – особенно отчим Генрих и брат Виктор - считают его законченным неудачником. Лишь его мать продолжает в него верить.
Работая уборщиком в психиатрической больнице, Ник в последнюю секунду спасает от самоубийства девушку Лайлу, что приводит к непредвиденным последствиям: Лайла тайно выслеживает своего спасителя и однажды вечером неожиданно появляется в дверях его квартиры. В ночной сорочке и босиком. Все попытки Ника избавиться от Лайлы кончаются неудачей. Девушка твёрдо решила остаться у него навсегда.
И вот необычная парочка – Ник, впервые в жизни вынужденный нести за кого-то ответственность, и Лайла, смотрящая на мир изумлёнными глазами ребёнка, - отправляется в путешествие, которое их сблизит и навсегда изменит их жизни…
Режиссер: Тиль Швайгер / Til Schweiger
Актеры: Тиль Швайгер, Джоанна Вокалек, Надя Тиллер, Майкл Мендл, Стеффен Винк, Александра Нелдель, Imogen Kogge, Андреа Паула Пол, Джанин Кунце, Армин Рохд
Продолжительность: 01:50:21
Перевод: Дубляж

Качество: DVDRip by shellgen
Формат: MKV
Видео: х264, 720x448@1049x448, 25.00 fps, ~1117.17Kbps, Bits/(Pixel*Frame): 0.134
Аудио 1: AC3, 6ch, 48Hz, CBR, 384 Kbps, Русский, Дубляж
Аудио 2: AC3, 6ch, 48Hz, CBR, 384 Kbps, Original, German
Субтитры: Русские, Немецкие, Английские
Формат субтитров: ASS, UTF-8 [SRT]
Навигация по главам: да
Сэмпл: Ссылка

Mediainfo

General
Complete name : Босиком по мостовой. Barfuss. 2005. (Kомедия, мелодрама, драма. Реж. Тиль Швайгер). DVDRip-AVC.mkv
Format : Matroska
Format version : Version 1
File size : 1.46 GiB
Duration : 1h 50mn
Overall bit rate : 1 889 Kbps
Movie name : Barfuss (2005)
Encoded date : UTC 2008-09-10 21:52:11
Writing application : mkvmerge v2.3.0 ('Freak U') built on Sep 8 2008 18:32:16
Writing library : libebml v0.7.7 + libmatroska v0.8.1
Attachment : Yes
Video
ID : 1
Format : AVC
Format/Info : Advanced Video Codec
Format profile : High@L3.0
Format settings, CABAC : Yes
Format settings, ReFrames : 6 frames
Codec ID : V_MPEG4/ISO/AVC
Duration : 1h 50mn
Bit rate : 1 084 Kbps
Width : 720 pixels
Height : 448 pixels
Display aspect ratio : 2.35:1
Original display aspect ratio : 1.607
Frame rate mode : Constant
Frame rate : 25.000 fps
Color space : YUV
Chroma subsampling : 4:2:0
Bit depth : 8 bits
Scan type : Progressive
Bits/(Pixel*Frame) : 0.134
Stream size : 855 MiB (57%)
Writing library : x264 core 61 r965M 3d2983d
Encoding settings : cabac=1 / ref=6 / deblock=1:-3:-1 / analyse=0x3:0x113 / me=umh / subme=7 / psy_rd=1.0:1.0 / brdo=1 / mixed_ref=1 / me_range=16 / chroma_me=1 / trellis=2 / 8x8dct=1 / cqm=0 / deadzone=21,11 / chroma_qp_offset=-8 / threads=1 / nr=0 / decimate=1 / mbaff=0 / bframes=4 / b_pyramid=1 / b_adapt=2 / b_bias=0 / direct=1 / wpredb=1 / bime=1 / keyint=300 / keyint_min=25 / scenecut=35 / rc=crf / crf=20.0 / qcomp=1.00 / qpmin=10 / qpmax=51 / qpstep=4 / ip_ratio=1.40 / pb_ratio=1.30 / aq=2:1.00 / zones=157943,165526,q=35
Language : German
Default : Yes
Forced : No
Audio #1
ID : 2
Format : AC-3
Format/Info : Audio Coding 3
Mode extension : CM (complete main)
Format settings, Endianness : Big
Codec ID : A_AC3
Duration : 1h 50mn
Bit rate mode : Constant
Bit rate : 384 Kbps
Channel(s) : 6 channels
Channel positions : Front: L C R, Side: L R, LFE
Sampling rate : 48.0 KHz
Bit depth : 16 bits
Compression mode : Lossy
Stream size : 303 MiB (20%)
Title : Russian AC3 6Ch 48KHz 384Kbps
Language : Russian
Default : Yes
Forced : No
Audio #2
ID : 3
Format : AC-3
Format/Info : Audio Coding 3
Mode extension : CM (complete main)
Format settings, Endianness : Big
Codec ID : A_AC3
Duration : 1h 50mn
Bit rate mode : Constant
Bit rate : 384 Kbps
Channel(s) : 6 channels
Channel positions : Front: L C R, Side: L R, LFE
Sampling rate : 48.0 KHz
Bit depth : 16 bits
Compression mode : Lossy
Stream size : 303 MiB (20%)
Title : German AC3 6Ch 48KHz 384Kbps
Language : German
Default : No
Forced : No
Text #1
ID : 4
Format : ASS
Codec ID : S_TEXT/ASS
Codec ID/Info : Advanced Sub Station Alpha
Compression mode : Lossless
Title : Russian
Language : Russian
Default : No
Forced : No
Text #2
ID : 5
Format : ASS
Codec ID : S_TEXT/ASS
Codec ID/Info : Advanced Sub Station Alpha
Compression mode : Lossless
Title : German
Language : German
Default : No
Forced : No
Text #3
ID : 6
Format : ASS
Codec ID : S_TEXT/ASS
Codec ID/Info : Advanced Sub Station Alpha
Compression mode : Lossless
Title : English
Language : English
Default : No
Forced : No
Text #4
ID : 7
Format : UTF-8
Codec ID : S_TEXT/UTF8
Codec ID/Info : UTF-8 Plain Text
Title : Russian [SRT]
Language : Russian
Default : No
Forced : No
Text #5
ID : 8
Format : UTF-8
Codec ID : S_TEXT/UTF8
Codec ID/Info : UTF-8 Plain Text
Title : German [SRT]
Language : German
Default : No
Forced : No
Text #6
ID : 9
Format : UTF-8
Codec ID : S_TEXT/UTF8
Codec ID/Info : UTF-8 Plain Text
Title : English [SRT]
Language : English
Default : No
Forced : No
Menu
00:00:00.000 : en:Chapter 1
00:05:28.440 : en:Chapter 2
00:12:02.160 : en:Chapter 3
00:17:39.360 : en:Chapter 4
00:24:07.440 : en:Chapter 5
00:30:23.520 : en:Chapter 6
00:35:07.680 : en:Chapter 7
00:40:15.360 : en:Chapter 8
00:46:20.400 : en:Chapter 9
00:53:24.120 : en:Chapter 10
00:58:27.600 : en:Chapter 11
01:07:04.080 : en:Chapter 12
01:12:09.960 : en:Chapter 13
01:17:22.920 : en:Chapter 14
01:23:25.680 : en:Chapter 15
01:30:11.760 : en:Chapter 16
01:36:47.760 : en:Chapter 17
01:42:52.440 : en:Chapter 18
Скриншоты:


Время раздачи: С 10:00 до 17:00 (мск)

[Цитировать]



Показать сообщения:    

Текущее время: 08-Дек 17:15

Часовой пояс: UTC + 3


Вы не можете начинать темы
Вы не можете отвечать на сообщения
Вы не можете редактировать свои сообщения
Вы не можете удалять свои сообщения
Вы не можете голосовать в опросах
Вы не можете прикреплять файлы к сообщениям
Вы не можете скачивать файлы

!ВНИМАНИЕ!
Сайт не предоставляет электронные версии произведений, а занимается лишь коллекционированием и каталогизацией ссылок, присылаемых и публикуемых на форуме нашими читателями. Если вы являетесь правообладателем какого-либо представленного материала и не желаете, чтобы ссылка на него находилась в нашем каталоге, свяжитесь с нами, и мы незамедлительно удалим ее. Файлы для обмена на трекере предоставлены пользователями сайта, и администрация не несет ответственности за их содержание. Просьба не заливать файлы, защищенные авторскими правами, а также файлы нелегального содержания!