[ Сегодня идет свободное скачивание без начисления Download ]


Статистика раздачи
Нет
 
   
 
Top  
 
 
-Все супергерои должны погибнуть / All Superheroes Must Die / Vs (2012) HDRip- Русское название: Все супергерои должны погибнуть
Оригинальное название: All Superheroes Must Die / Vs
Год выпуска: 2012
Жанр: Триллер-Описание фильма:
Четверо супер-героев похищены и заперты в городе-призраке. Человек, который все это проделал, предлагает им пройти некие испытания, или в противном случае погибнут невинные люди. В итоге, супер-герои вынуждены не только преодолевать смертельные ловушки, но и сражаться друг с другом, чтобы выжить и спасти заложников.-Релиз группы:
Доп. информация:
За перевод и предоставленные субтитры огромное спасибо Иерихон
Озвучивание Ворон-Режиссер: Джейсон Трост / Jason Trost
Актеры: Джейсон Трост, Лукас Тилл, Джеймс Римар, Софи Меркли, Ник Принсип, Брайан Тейлор, Ли Вэлмэсси, Шон Уэйлен-Продолжительность: 01:17:40
Перевод: Одноголосый закадровый
Вид субтитров: Отдельным файлом- -Видеокодек: Xvid
Битрейт видео: ~1797 kbps
Размер кадра: 720x304
Качество видео: HDRip
Аудио: 48 kHz, AC3 Dolby Digital, 3/2 (L,C,R,l,r) + LFE ch, ~448 kbps (Русский)
Аудио: 48 kHz, AC3 Dolby Digital, 3/2 (L,C,R,l,r) + LFE ch, ~448 kbps (Английский)
Формат субтитров: srt
Сэмпл: Ссылка-

Пример субтитров

13
00:03:35,783 --> 00:03:38,650
Вытащи меня отсюда! Развяжи!
14
00:05:16,649 --> 00:05:17,749
Черт.
15
00:05:58,091 --> 00:06:01,493
Всем добрый вечер.
16
00:06:01,495 --> 00:06:04,896
Очень рад, что все вы смогли здесь сегодня собраться.
17
00:06:04,898 --> 00:06:06,365
Это я...
18
00:06:07,433 --> 00:06:10,836
Рикшоу, ваш самый лучший друг.
19
00:06:10,838 --> 00:06:14,139
О, не надо делать вид, что вы удивлены.
20
00:06:14,141 --> 00:06:18,410
Признаться, после прошлой нашей встречи я думал, что мы больше не увидимся.
21
00:06:18,412 --> 00:06:21,446
Так что, полагаю, я тоже удивлен.
22
00:06:21,448 --> 00:06:23,749
Вот мы и снова вместе.
23
00:06:24,617 --> 00:06:26,551
Делаем то, что у нас лучше всего получается.
24
00:06:26,553 --> 00:06:27,719
Заряд.
25
00:06:28,121 --> 00:06:29,588
Тень.
26
00:06:30,590 --> 00:06:32,157
Головорез.
27
00:06:32,159 --> 00:06:34,393
И Стена.
28
00:06:34,395 --> 00:06:37,963
Мои самые-самые лучшие друзья.
29
00:06:41,033 --> 00:06:43,435
Не могу дождаться, когда смогу наконец познакомить вас
30
00:06:43,437 --> 00:06:45,771
с другими моими друзьями, с которыми вы еще не встречались.
-

MediaInfo

D:\films\All.Superheroes.Must.Die.2012.HDRip.RU.EN.BTT-TEAM\All.Superheroes.Must.Die.2012.HDRip.RU.EN.BTT-TEAM.avi
General
Complete name : D:\films\All.Superheroes.Must.Die.2012.HDRip.RU.EN.BTT-TEAM\All.Superheroes.Must.Die.2012.HDRip.RU.EN.BTT-TEAM.avi
Format : AVI
Format/Info : Audio Video Interleave
File size : 1.47 GiB
Duration : 1h 17mn
Overall bit rate : 2 709 Kbps
Writing application : VirtualDubMod 1.5.10.2 (build 2542/release)
Writing library : VirtualDubMod build 2542/release
Video #0
ID : 0
Format : MPEG-4 Visual
Format profile : Advanced Simple@L5
Format settings, BVOP : Yes
Format settings, QPel : No
Format settings, GMC : No warppoints
Format settings, Matrix : Default (MPEG)
Codec ID : XVID
Codec ID/Hint : XviD
Duration : 1h 17mn
Bit rate : 1 799 Kbps
Width : 720 pixels
Height : 304 pixels
Display aspect ratio : 2.35:1
Frame rate : 23.976 fps
Color space : YUV
Chroma subsampling : 4:2:0
Bit depth : 8 bits
Scan type : Progressive
Compression mode : Lossy
Bits/(Pixel*Frame) : 0.343
Stream size : 999 MiB (66%)
Writing library : XviD 1.2.1 (UTC 2008-12-04)
Audio #1
ID : 1
Format : AC-3
Format/Info : Audio Coding 3
Mode extension : CM (complete main)
Codec ID : 2000
Duration : 1h 17mn
Bit rate mode : Constant
Bit rate : 448 Kbps
Channel(s) : 6 channels
Channel positions : Front: L C R, Side: L R, LFE
Sampling rate : 48.0 KHz
Bit depth : 16 bits
Compression mode : Lossy
Stream size : 249 MiB (17%)
Alignment : Split accross interleaves
Interleave, duration : 42 ms (1.00 video frame)
Interleave, preload duration : 500 ms
Audio #2
ID : 2
Format : AC-3
Format/Info : Audio Coding 3
Mode extension : CM (complete main)
Codec ID : 2000
Duration : 1h 17mn
Bit rate mode : Constant
Bit rate : 448 Kbps
Channel(s) : 6 channels
Channel positions : Front: L C R, Side: L R, LFE
Sampling rate : 48.0 KHz
Bit depth : 16 bits
Compression mode : Lossy
Stream size : 249 MiB (17%)
Alignment : Split accross interleaves
Interleave, duration : 42 ms (1.00 video frame)
Interleave, preload duration : 500 ms
- -Время раздачи: до 10 скачавших....

[Цитировать]



Показать сообщения:    

Текущее время: 11-Дек 05:20

Часовой пояс: UTC + 3


Вы не можете начинать темы
Вы не можете отвечать на сообщения
Вы не можете редактировать свои сообщения
Вы не можете удалять свои сообщения
Вы не можете голосовать в опросах
Вы не можете прикреплять файлы к сообщениям
Вы не можете скачивать файлы

!ВНИМАНИЕ!
Сайт не предоставляет электронные версии произведений, а занимается лишь коллекционированием и каталогизацией ссылок, присылаемых и публикуемых на форуме нашими читателями. Если вы являетесь правообладателем какого-либо представленного материала и не желаете, чтобы ссылка на него находилась в нашем каталоге, свяжитесь с нами, и мы незамедлительно удалим ее. Файлы для обмена на трекере предоставлены пользователями сайта, и администрация не несет ответственности за их содержание. Просьба не заливать файлы, защищенные авторскими правами, а также файлы нелегального содержания!