[ Сегодня идет свободное скачивание без начисления Download ]


Статистика раздачи
Нет
 
   
 
Top  
 
 
-Гипнотизер / The hypnotist (2012) HDRip- Русское название: Гипнотизер
Оригинальное название: The hypnotist
Год выпуска: 2012
Жанр: Триллер, Драма, Криминал-Описание фильма:
В пригороде Стокгольма в раздевалке спортивного клуба найден зверски убитый мужчина. Позже в его доме обнаруживают зарубленных с чудовищной жестокостью жену и маленькую дочь. Похоже, убийца задался целью вырезать всю семью, однако тяжело раненный сын выжил. Комиссар уголовной полиции Йона Линна узнает, что в живых остался еще один член семьи — старшая сестра мальчика. Он понимает: необходимо найти девушку до того, как это сделает убийца. Чтобы поскорее допросить единственного свидетеля, Иона Линна связывается с врачом Эриком Марией Барком и убеждает его загипнотизировать мальчика. Только так можно получить описание преступника. Эрик нарушает свое давнее обещание отказаться от занятий гипнозом. И цепочка невероятных событий начинает неумолимо разматываться…-Режиссер: Лассе Халльстрём
Актеры: Тобиаш Зиллиакус, Микаэл Персбрандт, Лена Улин, Хелена аф Сандеберг, Оскар Петтерссон, Анна Азкарате, Йонатан Бёкман, Ян Вальдекранц, Ева Меландер, Горан Торелл-Продолжительность: 02:01:22
Перевод: Одноголосый закадровый den904
Перевод на русский: Экоррен- -Видеокодек: Xvid
Битрейт видео: ~1595 kbps
Размер кадра: 720x304
Качество видео: HDRip
Аудиокодек: MP3, 2.0
Битрейт аудио: 128 kbps
Сэмпл: Ссылка-

MediaInfo

D:\films\2012_The hypnotist.avi
General
Complete name : D:\films\2012_The hypnotist.avi
Format : AVI
Format/Info : Audio Video Interleave
File size : 1.47 GiB
Duration : 2h 1mn
Overall bit rate : 1 733 Kbps
Writing application : VirtualDubMod 1.5.10.2 (build 2540/release)
Writing library : VirtualDubMod build 2540/release
Video #0
ID : 0
Format : MPEG-4 Visual
Format profile : Advanced Simple@L5
Format settings, BVOP : Yes
Format settings, QPel : No
Format settings, GMC : No warppoints
Format settings, Matrix : Custom
Codec ID : XVID
Codec ID/Hint : XviD
Duration : 2h 1mn
Bit rate : 1 595 Kbps
Width : 720 pixels
Height : 304 pixels
Display aspect ratio : 2.35:1
Frame rate : 24.000 fps
Color space : YUV
Chroma subsampling : 4:2:0
Bit depth : 8 bits
Scan type : Progressive
Compression mode : Lossy
Bits/(Pixel*Frame) : 0.304
Stream size : 1.35 GiB (92%)
Writing library : XviD 73
Audio #1
ID : 1
Format : MPEG Audio
Format version : Version 1
Format profile : Layer 3
Mode : Joint stereo
Mode extension : MS Stereo
Codec ID : 55
Codec ID/Hint : MP3
Duration : 2h 1mn
Bit rate mode : Constant
Bit rate : 128 Kbps
Channel(s) : 2 channels
Sampling rate : 48.0 KHz
Compression mode : Lossy
Stream size : 111 MiB (7%)
Alignment : Aligned on interleaves
Interleave, duration : 42 ms (1.00 video frame)
Interleave, preload duration : 504 ms
- -Время раздачи: до 10 скачавших....

[Цитировать]



Показать сообщения:    

Текущее время: 20-Фев 23:48

Часовой пояс: UTC + 3


Вы не можете начинать темы
Вы не можете отвечать на сообщения
Вы не можете редактировать свои сообщения
Вы не можете удалять свои сообщения
Вы не можете голосовать в опросах
Вы не можете прикреплять файлы к сообщениям
Вы не можете скачивать файлы

!ВНИМАНИЕ!
Сайт не предоставляет электронные версии произведений, а занимается лишь коллекционированием и каталогизацией ссылок, присылаемых и публикуемых на форуме нашими читателями. Если вы являетесь правообладателем какого-либо представленного материала и не желаете, чтобы ссылка на него находилась в нашем каталоге, свяжитесь с нами, и мы незамедлительно удалим ее. Файлы для обмена на трекере предоставлены пользователями сайта, и администрация не несет ответственности за их содержание. Просьба не заливать файлы, защищенные авторскими правами, а также файлы нелегального содержания!