[ Сегодня идет свободное скачивание без начисления Download ]


Статистика раздачи
Нет
 
   
 
Top  
 
 
-Любовь.нет / Love.net (2011) HDRip- Русское название: Любовь.нет
Оригинальное название: Love.net
Год выпуска: 2011
Страна: Болгария
Жанр: Драма, Мелодрама-Описание фильма:
Фильм Илияна Джевелекова рассказывает о самой популярной в наши дни разновидности отношений — виртуальной любви. Несколько историй развиваются параллельно: каждый из героев картины предпочитает просторы Интернета живому общению — кто-то надеется таким образом найти свою любовь и полностью изменить жизнь, кто-то просто хочет весело провести время. Но, как и любовь в реальной жизни, виртуальная любовь — чувство изменчивое и противоречивое, способное принести, как счастье, так и разочарование.-Режиссер: Илиан Джевелеков
Актеры: Христо Шопов, Захари Бахаров, Лили Лазарова, Койна Русева, Диана Добрева, Диляна Попова, Джон Лоутон, Лора Чешмеджиева, Йорданка Кузманова, Владимир Пенев-Продолжительность: 01:48:38
Перевод: Двуголосый закадровый, любительский [Rg Victory Films]- -Дата мировой премьеры: 1 апреля 2011-Видеокодек: Xvid
Битрейт видео: ~757 kb/s
Размер кадра: 704x304
Качество видео: HDRip
Аудиокодек: MP3 (2 ch)
Битрейт аудио: 128 kb/s

MediaInfo

Общее
Полное имя : D:\Торрент раздача\Lоve_nеt_2011_HDRip_700MB.avi
Формат : AVI
Формат/Информация : Audio Video Interleave
Размер файла : 698 Мбайт
Продолжительность : 1 ч. 48 м.
Общий поток : 899 Кбит/сек
Название фильма : Love.net
Программа кодирования : Lavf54.25.104
Формат оригинала/Имя : Movie
Видео
Идентификатор : 0
Формат : MPEG-4 Visual
Профиль формата : [email protected]
Параметр BVOP формата : Нет
Параметр QPel формата : Нет
Параметр GMC формата : Без точки перехода
Параметр матрицы формата : Default (H.263)
Идентификатор кодека : XVID
Идентификатор кодека/Подсказка : XviD
Продолжительность : 1 ч. 48 м.
Битрейт : 758 Кбит/сек
Ширина : 704 пикселя
Высота : 304 пикселя
Соотношение сторон : 2,35:1
Частота кадров : 25,000 кадров/сек
Цветовое пространство : YUV
Субдискретизация насыщенности : 4:2:0
Битовая глубина : 8 бит
Тип развёртки : Прогрессивная
Метод сжатия : С потерями
Бит/(Пиксели*Кадры) : 0.142
Размер потока : 589 Мбайт (84%)
Библиотека кодирования : XviD 64
Аудио
Идентификатор : 1
Формат : MPEG Audio
Версия формата : Version 1
Профиль формата : Layer 3
Идентификатор кодека : 55
Идентификатор кодека/Подсказка : MP3
Продолжительность : 1 ч. 48 м.
Вид битрейта : Постоянный
Битрейт : 128 Кбит/сек
Каналы : 2 канала
Частота : 48,0 КГц
Метод сжатия : С потерями
Размер потока : 99,5 Мбайт (14%)
Выравнивание : Соединение по промежуткам
Продолжительность промежутка : 24 мс. (0,60 видеокадр)
Время предзагрузки промежутка : 24 мс.
Скриншоты:
Время раздачи: 08:00 - 23:30

[Цитировать]



Показать сообщения:    

Текущее время: 05-Дек 13:34

Часовой пояс: UTC + 3


Вы не можете начинать темы
Вы не можете отвечать на сообщения
Вы не можете редактировать свои сообщения
Вы не можете удалять свои сообщения
Вы не можете голосовать в опросах
Вы не можете прикреплять файлы к сообщениям
Вы не можете скачивать файлы

!ВНИМАНИЕ!
Сайт не предоставляет электронные версии произведений, а занимается лишь коллекционированием и каталогизацией ссылок, присылаемых и публикуемых на форуме нашими читателями. Если вы являетесь правообладателем какого-либо представленного материала и не желаете, чтобы ссылка на него находилась в нашем каталоге, свяжитесь с нами, и мы незамедлительно удалим ее. Файлы для обмена на трекере предоставлены пользователями сайта, и администрация не несет ответственности за их содержание. Просьба не заливать файлы, защищенные авторскими правами, а также файлы нелегального содержания!