[ Today is free to download without increasing Download ]

DL-List and Torrent activity
-Жених напрокат / The Wedding Date (2005) HDRip- Русское название: Жених напрокат
Оригинальное название: The Wedding Date
Год выпуска: 2005
Страна: США
Слоган: «Любовь не приходит бесплатно...»
Жанр: мелодрама, комедия--Режиссер: Клер Килнер
Актеры: Дебра Мессинг (Kat Ellis), Дермот Малруни (Nick Mercer), Эми Адамс (Amy), Джек Девенпорт (Edward Fletcher-Wooten), Сара Пэриш (TJ), Джереми Шеффилд (Jeffrey), Питер Иган (Victor Ellis), Холланд Тейлор (Bunny), Джолион Джеймс (Woody), С. Джерод Харрис (Bike Messenger), Мартин Баррет (Teenager), Джей Саймон (Male Flight Attendant)
Дублёры: Лариса Некипелова (Kat Ellis), Александр Рахленко (Nick Mercer), Ольга Зверева (Amy), Василий Дахненко (Edward Fletcher-Wooten), Марина Бакина (TJ), Валерий Сторожик (Jeffrey), Виктор Петров (Victor Ellis), Ольга Гаспарова (Bunny)-Описание фильма: Кэт стоит перед нелегкой дилеммой: необходимость съездить на свадьбу сестры в отчий дом омрачена тем, что там она непременно встретит экс- возлюбленного, расставание с которым было очень болезненным. Если уж ехать, то надо предъявить родственникам и бывшему жениха, симпатичного, умного и влюбленного. А его нет. И Кэт решает нанять парня из службы эскорт-услуг для посещения свадебной вечеринки.- -Продолжительность: 01:29:03
Перевод: Дублированный
Субтитры: отсутствуют--Качество видео: HDRip
Видеокодек: MPEG-4 AVC/H.264
Битрейт видео: ~1 952 Кбит/с
Размер кадра: 784x416
Аудиокодек: AC3 5.1
Битрейт аудио: 384 Кбит/с-


Unique ID : 251650273471496772213849209893146908279 (0xBD5214687A39A155BE01DB6CAD78D677)
Complete name : G:\Zhenih.naprokat.2005.HDRip.mkv
Format : Matroska
Format version : Version 2
File size : 1.45 GiB
Duration : 1h 29mn
Overall bit rate : 2 337 Kbps
Encoded date : UTC 2011-09-04 00:11:27
Writing application : mkvmerge v4.6.0 ('Still Crazy After All These Years') сборка от Apr 1 2011 21:01:49
Writing library : libebml v1.2.0 + libmatroska v1.1.0
ID : 1
Format : AVC
Format/Info : Advanced Video Codec
Format profile : High@L4.1
Format settings, CABAC : Yes
Format settings, ReFrames : 4 frames
Duration : 1h 29mn
Bit rate : 1 952 Kbps
Width : 784 pixels
Height : 416 pixels
Display aspect ratio : 1.885
Frame rate : 23.976 fps
Color space : YUV
Chroma subsampling : 4:2:0
Bit depth : 8 bits
Scan type : Progressive
Bits/(Pixel*Frame) : 0.250
Stream size : 1.19 GiB (82%)
Writing library : x264 core 115 r1937 aa21558
Encoding settings : cabac=1 / ref=3 / deblock=1:-1:-1 / analyse=0x3:0x113 / me=hex / subme=7 / psy=1 / psy_rd=1.00:0.10 / mixed_ref=1 / me_range=16 / chroma_me=1 / trellis=1 / 8x8dct=1 / cqm=0 / deadzone=21,11 / fast_pskip=1 / chroma_qp_offset=-3 / threads=6 / sliced_threads=0 / nr=0 / decimate=1 / interlaced=0 / bluray_compat=0 / constrained_intra=0 / bframes=3 / b_pyramid=2 / b_adapt=1 / b_bias=0 / direct=1 / weightb=1 / open_gop=0 / weightp=2 / keyint=250 / keyint_min=23 / scenecut=40 / intra_refresh=0 / rc_lookahead=40 / rc=2pass / mbtree=1 / bitrate=1952 / ratetol=1.0 / qcomp=0.60 / qpmin=0 / qpmax=69 / qpstep=4 / cplxblur=20.0 / qblur=0.5 / ip_ratio=1.40 / aq=1:1.00
Default : Yes
Forced : No
ID : 2
Format : AC-3
Format/Info : Audio Coding 3
Mode extension : CM (complete main)
Format settings, Endianness : Big
Codec ID : A_AC3
Duration : 1h 29mn
Bit rate mode : Constant
Bit rate : 384 Kbps
Channel(s) : 6 channels
Channel positions : Front: L C R, Side: L R, LFE
Sampling rate : 48.0 KHz
Bit depth : 16 bits
Compression mode : Lossy
Stream size : 245 MiB (16%)
Default : Yes
Forced : No
-Время раздачи: С 09:00 до 24:00


Display posts:    

Current time is: 26-Oct 20:19

All times are UTC + 3

You cannot post new topics in this forum
You cannot reply to topics in this forum
You cannot edit your posts in this forum
You cannot delete your posts in this forum
You cannot vote in polls in this forum
You cannot attach files in this forum
You cannot download files in this forum

The site does not give electronic versions of products, and is engaged only in a collecting and cataloguing of the references sent and published at a forum by our readers. If you are the legal owner of any submitted material and do not wish that the reference to it was in our catalogue, contact us and we shall immediately remove her. Files for an exchange on tracker are given by users of a site, and the administration does not bear the responsibility for their maintenance. The request to not fill in the files protected by copyrights, and also files of the illegal maintenance!