[ Сегодня идет свободное скачивание без начисления Download ]


Статистика раздачи
Нет
 
   
 
Top  
 
 
-Интуиция / Serendipity (2001) BDRip- Русское название: Интуиция
Оригинальное название: Serendipity
Год выпуска: 2001
Страна: США
Жанр: Мелодрама, Комедия--Режиссер: Питер Челсом
Актеры: Джон Кьюсак (Jonathan Trager), Кейт Бекинсейл (Sara Thomas), Джереми Пивен (Dean Kansky), Бриджет Мойнэхэн (Halley Buchanan), Юджин Леви (Bloomingdale's Salesman), Лилли Лавинь (Bloomingdale's Stock Girl), Майкл Джуарино мл. (Customer At Bloomingdale's), Абдул Альшавиш (Customer At Bloomingdale's), Стефен Брюс (Host At Serendipity), Дэвид Спэрроу (Josh's Dad), Энн Тэлман (Bloomingdale's Saleswoman #1), Кристал Бок (Bloomingdale's Saleswoman #2)
Дублёры: Андрей Бархударов (Jonathan Trager), Олег Куценко, Рогволд Суховерко, Сергей Быстрицкий, Сергей Чекан, Денис Беспалый (Dean Kansky), Вадим Андреев (Bloomingdale's Salesman), Андрей Градов (Lars Hammond)--Описание фильма: В один суматошный зимний день, посреди нью-йоркской толпы Джонатан встретил Сару. Два незнакомых человека в объятом предновогодней лихорадкой городе обнаруживают, что их неодолимо тянет друг к другу. И они решают проверить судьбу: он пишет свой телефон на банкноте, она - в книге. Купюру разменивают, а книгу сдают букинисту. Джонатан и Сара уверены, что скоро увидятся вновь. Но коварная судьба распорядилась по-своему.- -Продолжительность: 01:30:58
Перевод: Дублированный, многоголосый
Язык субтитров: Русские (с лицензии, авторские), английские (полные, текст+песни, SDH)
Субтитры: Вшитые отключаемые--Качество видео: BDRip
Видеокодек: MPEG-4 AVC/H.264
Битрейт видео: ~761 kbps
Размер кадра: 1024x576
Аудио 1: Русский; AC3; 448 Kbps; CBR; 6 ch - Дублированный (R5)
Аудио 2: Русский; AC3; 384 Kbps; CBR; 6 ch - Многоголосый (Карусель)
Аудио 3: Русский; AC3; 384 Kbps; CBR; 6 ch - Многоголосый (с переиздания R1)
Аудио 4: Англ-ий; AC3; 448 Kbps; CBR; 6 ch
Сохраненны оригинальные Chapters (главы) Blu-Ray.
-

Mediainfo

General
Unique ID : 251714434298616509168313754780803793895 (0xBD5E6FC7F7D071718CCBAF07062403E7)
Complete name : G:\Serendipity.2001.(H.264).BDRip.mkv
Format : Matroska
Format version : Version 2
File size : 2.18 GiB
Duration : 1h 30mn
Overall bit rate : 3 427 Kbps
Encoded date : UTC 2013-01-30 10:36:02
Writing application : mkvmerge v4.6.0 ('Still Crazy After All These Years') сборка от Apr 1 2011 21:01:49
Writing library : libebml v1.2.0 + libmatroska v1.1.0
Video
ID : 1
Format : AVC
Format/Info : Advanced Video Codec
Format profile : High@L4.1
Format settings, CABAC : Yes
Format settings, ReFrames : 10 frames
Codec ID : V_MPEG4/ISO/AVC
Duration : 1h 30mn
Bit rate : 1 761 Kbps
Width : 1 024 pixels
Height : 576 pixels
Display aspect ratio : 16:9
Frame rate : 23.976 fps
Color space : YUV
Chroma subsampling : 4:2:0
Bit depth : 8 bits
Scan type : Progressive
Bits/(Pixel*Frame) : 0.125
Stream size : 1.08 GiB (49%)
Title : Intuitsiya / Serendipity
Writing library : x264 core 129 r2230 1cffe9f
Encoding settings : cabac=1 / ref=10 / deblock=1:-3:-3 / analyse=0x3:0x133 / me=umh / subme=11 / psy=1 / psy_rd=1.00:0.00 / mixed_ref=1 / me_range=48 / chroma_me=1 / trellis=2 / 8x8dct=1 / cqm=0 / deadzone=21,11 / fast_pskip=0 / chroma_qp_offset=-2 / threads=6 / lookahead_threads=1 / sliced_threads=0 / nr=0 / decimate=0 / interlaced=0 / bluray_compat=0 / constrained_intra=0 / bframes=8 / b_pyramid=2 / b_adapt=2 / b_bias=0 / direct=3 / weightb=1 / open_gop=0 / weightp=2 / keyint=240 / keyint_min=22 / scenecut=40 / intra_refresh=0 / rc_lookahead=60 / rc=2pass / mbtree=1 / bitrate=1761 / ratetol=1.0 / qcomp=0.60 / qpmin=10 / qpmax=51 / qpstep=4 / cplxblur=20.0 / qblur=0.5 / ip_ratio=1.40 / aq=1:1.00
Default : Yes
Forced : No
Audio #1
ID : 2
Format : AC-3
Format/Info : Audio Coding 3
Mode extension : CM (complete main)
Format settings, Endianness : Big
Codec ID : A_AC3
Duration : 1h 30mn
Bit rate mode : Constant
Bit rate : 448 Kbps
Channel(s) : 6 channels
Channel positions : Front: L C R, Side: L R, LFE
Sampling rate : 48.0 KHz
Bit depth : 16 bits
Compression mode : Lossy
Stream size : 291 MiB (13%)
Title : DUB (R5)
Language : Russian
Default : Yes
Forced : No
Audio #2
ID : 3
Format : AC-3
Format/Info : Audio Coding 3
Mode extension : CM (complete main)
Format settings, Endianness : Big
Codec ID : A_AC3
Duration : 1h 30mn
Bit rate mode : Constant
Bit rate : 384 Kbps
Channel(s) : 6 channels
Channel positions : Front: L C R, Side: L R, LFE
Sampling rate : 48.0 KHz
Bit depth : 16 bits
Compression mode : Lossy
Stream size : 250 MiB (11%)
Title : MVO (Karusel)
Language : Russian
Default : No
Forced : No
Audio #3
ID : 4
Format : AC-3
Format/Info : Audio Coding 3
Mode extension : CM (complete main)
Format settings, Endianness : Big
Codec ID : A_AC3
Duration : 1h 30mn
Bit rate mode : Constant
Bit rate : 384 Kbps
Channel(s) : 6 channels
Channel positions : Front: L C R, Side: L R, LFE
Sampling rate : 48.0 KHz
Bit depth : 16 bits
Compression mode : Lossy
Stream size : 250 MiB (11%)
Title : MVO (R1)
Language : Russian
Default : No
Forced : No
Audio #4
ID : 5
Format : AC-3
Format/Info : Audio Coding 3
Mode extension : CM (complete main)
Format settings, Endianness : Big
Codec ID : A_AC3
Duration : 1h 30mn
Bit rate mode : Constant
Bit rate : 448 Kbps
Channel(s) : 6 channels
Channel positions : Front: L C R, Side: L R, LFE
Sampling rate : 48.0 KHz
Bit depth : 16 bits
Compression mode : Lossy
Stream size : 291 MiB (13%)
Title : Original
Language : English
Default : No
Forced : No
Text #1
ID : 6
Format : UTF-8
Codec ID : S_TEXT/UTF8
Codec ID/Info : UTF-8 Plain Text
Title : license
Language : Russian
Default : No
Forced : No
Text #2
ID : 7
Format : UTF-8
Codec ID : S_TEXT/UTF8
Codec ID/Info : UTF-8 Plain Text
Title : avtorskiye
Language : Russian
Default : No
Forced : No
Text #3
ID : 8
Format : UTF-8
Codec ID : S_TEXT/UTF8
Codec ID/Info : UTF-8 Plain Text
Title : text + songs
Language : English
Default : No
Forced : No
Text #4
ID : 9
Format : UTF-8
Codec ID : S_TEXT/UTF8
Codec ID/Info : UTF-8 Plain Text
Title : SDH
Language : English
Default : No
Forced : No
Text #5
ID : 10
Format : UTF-8
Codec ID : S_TEXT/UTF8
Codec ID/Info : UTF-8 Plain Text
Title : Rip by _paravoz_
Language : English
Default : No
Forced : No
Menu
00:00:00.000 : en:1. Opening Credits: "A Fortunate Accident"
00:08:37.350 : en: 2. Astrological Freckles
00:12:00.762 : en: 3. Forwarding Fate
00:17:52.655 : en: 4. A Toast to Soulmates
00:22:34.687 : en: 5. Magical Elements
00:26:37.221 : en: 6. Searching for Sara
00:32:18.186 : en: 7. "Mr. Good-Enough-for-Right-Now"
00:36:08.958 : en: 8. Good Salesmanship
00:39:24.904 : en: 9. "One Last Fling"
00:42:46.272 : en:10. Tracking Down Destiny
00:49:38.100 : en:11. Signs and Clues
00:59:31.026 : en:12. The Groom's Gift
01:07:54.570 : en:13. "Everything Happens for a Reason"
01:11:50.181 : en:14. "Is It Over?"
01:16:14.278 : en:15. "An Exquisite, Sublime Plan"
01:25:38.425 : en:16. End Credits
-Скриншоты:
-Время раздачи: с 09:00 до 24:00

[Цитировать]



Показать сообщения:    

Текущее время: 07-Дек 21:24

Часовой пояс: UTC + 3


Вы не можете начинать темы
Вы не можете отвечать на сообщения
Вы не можете редактировать свои сообщения
Вы не можете удалять свои сообщения
Вы не можете голосовать в опросах
Вы не можете прикреплять файлы к сообщениям
Вы не можете скачивать файлы

!ВНИМАНИЕ!
Сайт не предоставляет электронные версии произведений, а занимается лишь коллекционированием и каталогизацией ссылок, присылаемых и публикуемых на форуме нашими читателями. Если вы являетесь правообладателем какого-либо представленного материала и не желаете, чтобы ссылка на него находилась в нашем каталоге, свяжитесь с нами, и мы незамедлительно удалим ее. Файлы для обмена на трекере предоставлены пользователями сайта, и администрация не несет ответственности за их содержание. Просьба не заливать файлы, защищенные авторскими правами, а также файлы нелегального содержания!