[ Сегодня идет свободное скачивание без начисления Download ]


Статистика раздачи
Нет
 
   
 
Top  
 
 
-Неуютная ферма / Cold Comfort Farm (1995) DVDRip- Русское название: Неуютная ферма
Оригинальное название: Cold Comfort Farm
Год выпуска: 1995
Жанр: Комедия, Мелодрама
Описание фильма:
Англия, начало 1930-х годов. Юная Флора Пост после смерти родителей остается одна с содержанием 100 фунтов в год и решает поехать к дальним родственникам на Неуютную ферму. Ферма оказывается мрачной и запущенной, а родственники - один сумасброднее другого, и Флора задумывает навести там порядок.
Режиссер: Джон Шлезингер
Актеры: Айлин Эткинс, Кейт Бекинсейл, Шила Баррелл, Стивен Фрай, Фредди Джонс, Джоанна Ламли, Иэн МакКеллен, Мириам Маргулис, Руфус Сьюэлл, Айван Кэй и др.
Продолжительность: 01:44:26
Перевод: Одноголосый закадровый
Автор перевода: el_brujo
Релиз группа: NewStudio.TV & RG Translators
Язык субтитров: нет
Вид субтитров: нет

Дата мировой премьеры: 1995
Видеокодек: Xvid
Битрейт видео: ~874 Кбит/сек
Размер кадра: 608 x 336
Качество видео: DVDRip
Аудио 1: English; MP3; 128 Kbps; CBR; 2-х канальный Дублированный
Аудио 2: Русский; MP3; 113 Kbps; CBR; 2-х канальный Одноголосый закадровый
Сэмпл: Ссылка

О озвучке

Озвучка (skleroz) хоть и одноголосая, но выполнена весьма профессионально и передает индивидуальные "нотки" основных персонажей.

Mediainfo

Видео
Идентификатор : 0
Формат : MPEG-4 Visual
Профиль формата : Advanced Simple@L5
Параметр BVOP формата : 1
Параметр QPel формата : Нет
Параметр GMC формата : Без точки перехода
Параметр матрицы формата : Выборочная
Идентификатор кодека : XVID
Идентификатор кодека/Подсказка : XviD
Продолжительность : 1 ч. 44 м.
Битрейт : 874 Кбит/сек
Ширина : 608 пикселей
Высота : 336 пикселей
Соотношение сторон : 16:9
Частота кадров : 23,976 кадра/сек
Цветовое пространство : YUV
Субдискретизация насыщенности : 4:2:0
Битовая глубина : 8 бит
Тип развёртки : Прогрессивная
Метод сжатия : С потерями
Бит/(Пиксели*Кадры) : 0.179
Размер потока : 653 Мбайт (77%)
Библиотека кодирования : XviD 1.2.0.dev47 (UTC 2006-11-01)
Аудио #1
Идентификатор : 1
Формат : MPEG Audio
Версия формата : Version 1
Профиль формата : Layer 3
Режим : Joint stereo
Расширение режима : MS Stereo
Идентификатор кодека : 55
Идентификатор кодека/Подсказка : MP3
Продолжительность : 1 ч. 44 м.
Вид битрейта : Постоянный
Битрейт : 128 Кбит/сек
Каналы : 2 канала
Частота : 48,0 КГц
Метод сжатия : С потерями
Размер потока : 95,6 Мбайт (11%)
Выравнивание : Соединение по промежуткам
Продолжительность промежутка : 42 мс. (1,00 видеокадр)
Время предзагрузки промежутка : 504 мс.
Язык : English
Аудио #2
Идентификатор : 2
Формат : MPEG Audio
Версия формата : Version 1
Профиль формата : Layer 3
Режим : Joint stereo
Расширение режима : MS Stereo
Идентификатор кодека : 55
Идентификатор кодека/Подсказка : MP3
Продолжительность : 1 ч. 44 м.
Вид битрейта : Переменный
Битрейт : 113 Кбит/сек
Номинальный битрейт : 128 Кбит/сек
Каналы : 2 канала
Частота : 48,0 КГц
Метод сжатия : С потерями
Размер потока : 84,5 Мбайт (10%)
Выравнивание : Соединение по промежуткам
Продолжительность промежутка : 24 мс. (0,58 видеокадр)
Время предзагрузки промежутка : 162 мс.
Библиотека кодирования : LAME3.97
Настройки программы : -m j -V 4 -q 2 -lowpass 17 --abr 128
Скриншоты:
Время раздачи: Преимущественно 8:00-22:00 (МСК).

[Цитировать]



Показать сообщения:    

Текущее время: 11-Дек 12:55

Часовой пояс: UTC + 3


Вы не можете начинать темы
Вы не можете отвечать на сообщения
Вы не можете редактировать свои сообщения
Вы не можете удалять свои сообщения
Вы не можете голосовать в опросах
Вы не можете прикреплять файлы к сообщениям
Вы не можете скачивать файлы

!ВНИМАНИЕ!
Сайт не предоставляет электронные версии произведений, а занимается лишь коллекционированием и каталогизацией ссылок, присылаемых и публикуемых на форуме нашими читателями. Если вы являетесь правообладателем какого-либо представленного материала и не желаете, чтобы ссылка на него находилась в нашем каталоге, свяжитесь с нами, и мы незамедлительно удалим ее. Файлы для обмена на трекере предоставлены пользователями сайта, и администрация не несет ответственности за их содержание. Просьба не заливать файлы, защищенные авторскими правами, а также файлы нелегального содержания!