[ Сегодня идет свободное скачивание без начисления Download ]


Статистика раздачи
Нет
 
   
 
Top  
 
 
-Потерпевший / Wrecked (2010) HDRip- Русское название: Потерпевший
Оригинальное название: Wrecked
Год выпуска: 2010
Производство: США, Канада / Independent Edge FIlms, Telefilm Canada - Equity Investment Program
Жанр: Триллер, Драма, Детектив, Приключения-Описание фильма:
Герой очнулся в разбитом автомобиле, посреди каких-то джунглей. Машина разбита, у него сломана нога, вокруг несколько трупов, а в бардачке револьвер. Он ничего не помнит — как он здесь оказался и даже как его зовут. Вокруг глухой лес и никого нет. Сначала надо как-то выжить, а потом попытаться добраться до людей. А по пути еще и вспомнить что же произошло. А поскольку в багажнике еще и сумка полная денег, то еще спастись от людей, которые будут пытаться убить.-Режиссер: Майкл Гринспен
Актеры: Эдриан Броуди, Каролин Давернас, Райан Роббинс, Адриан Холмс, Джейкоб Блэр, Марк МакКончи-Продолжительность: 01:29:38
Перевод: Многоголосый закадровый, профессиональный [лицензия]- -Дата мировой премьеры: 15 октября 2010
Дата выхода DVD релиза: 28 января 2013, «Новый Диск»-Видеокодек: Xvid
Битрейт видео: ~877 Кбит/сек
Размер кадра: 720x304
Качество видео: HDRip
Аудиокодек: AC3 2.0
Битрейт аудио: 192 Кбит/сек

MediaInfo

Общее
Полное имя : D:\Торрент раздача\Wrecked.2010.P.HDRip.avi
Формат : AVI
Формат/Информация : Audio Video Interleave
Размер файла : 693 Мбайт
Продолжительность : 1 ч. 29 м.
Общий поток : 1079 Кбит/сек
Название фильма : Wrecked.2010.P.HDRip
Жанр : Adventure | Drama | Mystery
Программа кодирования : VirtualDubMod 1.5.10.2 (build 2540/release)
Библиотека кодирования : VirtualDub build 32661/release
Формат оригинала/Имя : Movie
Видео
Идентификатор : 0
Формат : MPEG-4 Visual
Профиль формата : Advanced Simple@L5
Параметр BVOP формата : 2
Параметр QPel формата : Нет
Параметр GMC формата : Без точки перехода
Параметр матрицы формата : Default (H.263)
Режим смешивания : Сжатый битовый поток
Идентификатор кодека : XVID
Идентификатор кодека/Подсказка : XviD
Продолжительность : 1 ч. 29 м.
Битрейт : 877 Кбит/сек
Ширина : 720 пикселей
Высота : 304 пикселя
Соотношение сторон : 2,35:1
Частота кадров : 23,976 кадра/сек
Цветовое пространство : YUV
Субдискретизация насыщенности : 4:2:0
Битовая глубина : 8 бит
Тип развёртки : Прогрессивная
Метод сжатия : С потерями
Бит/(Пиксели*Кадры) : 0.167
Размер потока : 564 Мбайт (81%)
Библиотека кодирования : XviD 64
Аудио
Идентификатор : 1
Формат : AC-3
Формат/Информация : Audio Coding 3
Расширение режима : CM (complete main)
Параметр Endianness формата : Big
Идентификатор кодека : 2000
Продолжительность : 1 ч. 29 м.
Вид битрейта : Постоянный
Битрейт : 192 Кбит/сек
Каналы : 2 канала
Расположение каналов : Front: L R
Частота : 48,0 КГц
Битовая глубина : 16 бит
Метод сжатия : С потерями
Размер потока : 123 Мбайт (18%)
Выравнивание : Разделение по промежуткам
Продолжительность промежутка : 42 мс. (1,00 видеокадр)
Время предзагрузки промежутка : 512 мс.
Скриншоты:
Время раздачи: 08:00 - 23:30 (МСК)

[Цитировать]



Показать сообщения:    

Текущее время: 23-Апр 11:39

Часовой пояс: UTC + 6


Вы не можете начинать темы
Вы не можете отвечать на сообщения
Вы не можете редактировать свои сообщения
Вы не можете удалять свои сообщения
Вы не можете голосовать в опросах
Вы не можете прикреплять файлы к сообщениям
Вы не можете скачивать файлы

!ВНИМАНИЕ!
Сайт не предоставляет электронные версии произведений, а занимается лишь коллекционированием и каталогизацией ссылок, присылаемых и публикуемых на форуме нашими читателями. Если вы являетесь правообладателем какого-либо представленного материала и не желаете, чтобы ссылка на него находилась в нашем каталоге, свяжитесь с нами, и мы незамедлительно удалим ее. Файлы для обмена на трекере предоставлены пользователями сайта, и администрация не несет ответственности за их содержание. Просьба не заливать файлы, защищенные авторскими правами, а также файлы нелегального содержания!