[ Сегодня идет свободное скачивание без начисления Download ]


Статистика раздачи
Нет
 
   
 
Top  
 
 
-Потерпевший / Wrecked (2010) HDRip- Русское название: Потерпевший
Оригинальное название: Wrecked
Год выпуска: 2010
Производство: США, Канада / Independent Edge FIlms, Telefilm Canada - Equity Investment Program
Жанр: Триллер, Драма, Детектив, Приключения-Описание фильма:
Герой очнулся в разбитом автомобиле, посреди каких-то джунглей. Машина разбита, у него сломана нога, вокруг несколько трупов, а в бардачке револьвер. Он ничего не помнит — как он здесь оказался и даже как его зовут. Вокруг глухой лес и никого нет. Сначала надо как-то выжить, а потом попытаться добраться до людей. А по пути еще и вспомнить что же произошло. А поскольку в багажнике еще и сумка полная денег, то еще спастись от людей, которые будут пытаться убить.-Режиссер: Майкл Гринспен
Актеры: Эдриан Броуди, Каролин Давернас, Райан Роббинс, Адриан Холмс, Джейкоб Блэр, Марк МакКончи-Продолжительность: 01:29:38
Перевод: Многоголосый закадровый, профессиональный [лицензия]- -Дата мировой премьеры: 15 октября 2010
Дата выхода DVD релиза: 28 января 2013, «Новый Диск»-Видеокодек: Xvid
Битрейт видео: ~1720 Кбит/сек
Размер кадра: 720x304
Качество видео: HDRip
Аудиокодек: AC3 5.1
Битрейт аудио: 448.00 Кбит/сек

MediaInfo

Общее
Полное имя : D:\Торрент раздача\Poterpevshij.2010.P.HDRip.avi
Формат : AVI
Формат/Информация : Audio Video Interleave
Размер файла : 1,37 Гбайт
Продолжительность : 1 ч. 29 м.
Общий поток : 2178 Кбит/сек
Название фильма : Poterpevshij.2010.P.HDRip
Жанр : Adventure | Drama | Mystery
Программа кодирования : VirtualDubMod 1.5.10.2 (build 2540/release)
Формат оригинала/Имя : Movie
Видео
Идентификатор : 0
Формат : MPEG-4 Visual
Профиль формата : Advanced Simple@L5
Параметр BVOP формата : 1
Параметр QPel формата : Нет
Параметр GMC формата : Без точки перехода
Параметр матрицы формата : Выборочная
Идентификатор кодека : XVID
Идентификатор кодека/Подсказка : XviD
Продолжительность : 1 ч. 29 м.
Битрейт : 1721 Кбит/сек
Ширина : 720 пикселей
Высота : 304 пикселя
Соотношение сторон : 2,35:1
Частота кадров : 23,976 кадра/сек
Цветовое пространство : YUV
Субдискретизация насыщенности : 4:2:0
Битовая глубина : 8 бит
Тип развёртки : Прогрессивная
Метод сжатия : С потерями
Бит/(Пиксели*Кадры) : 0.328
Размер потока : 1,08 Гбайт (79%)
Библиотека кодирования : XviD 1.2.1 (UTC 2008-12-04)
Аудио
Идентификатор : 1
Формат : AC-3
Формат/Информация : Audio Coding 3
Расширение режима : CM (complete main)
Параметр Endianness формата : Big
Идентификатор кодека : 2000
Продолжительность : 1 ч. 29 м.
Вид битрейта : Постоянный
Битрейт : 448 Кбит/сек
Каналы : 6 каналов
Расположение каналов : Front: L C R, Side: L R, LFE
Частота : 48,0 КГц
Битовая глубина : 16 бит
Метод сжатия : С потерями
Размер потока : 288 Мбайт (21%)
Выравнивание : Разделение по промежуткам
Продолжительность промежутка : 42 мс. (1,00 видеокадр)
Время предзагрузки промежутка : 500 мс.
Скриншоты:
Время раздачи: 08:00 - 23:30 (МСК)

[Цитировать]



Показать сообщения:    

Текущее время: 10-Дек 10:01

Часовой пояс: UTC + 3


Вы не можете начинать темы
Вы не можете отвечать на сообщения
Вы не можете редактировать свои сообщения
Вы не можете удалять свои сообщения
Вы не можете голосовать в опросах
Вы не можете прикреплять файлы к сообщениям
Вы не можете скачивать файлы

!ВНИМАНИЕ!
Сайт не предоставляет электронные версии произведений, а занимается лишь коллекционированием и каталогизацией ссылок, присылаемых и публикуемых на форуме нашими читателями. Если вы являетесь правообладателем какого-либо представленного материала и не желаете, чтобы ссылка на него находилась в нашем каталоге, свяжитесь с нами, и мы незамедлительно удалим ее. Файлы для обмена на трекере предоставлены пользователями сайта, и администрация не несет ответственности за их содержание. Просьба не заливать файлы, защищенные авторскими правами, а также файлы нелегального содержания!