[ Сегодня идет свободное скачивание без начисления Download ]


Статистика раздачи
Нет
 
   
 
Top  
 
 
-Божественное вмешательство / Yadon ilaheyya / Divine Intervention (2002) DVDRip- Русское название: Божественное вмешательство
Оригинальное название: Yadon ilaheyya / Divine Intervention
Год выпуска: 2002
Страна: Франция, Палестина
Жанр: Драма, Мелодрама, Военный
Режиссер: Элиа Сулейман
Актеры: Элия Сулейман, Манал Хадер, Амер Дахер, Джамель Дахер, Найеф Фахум Дахер, Назира Сулейман, Джордж Ибрагим, Эмма Болтански
Продолжительность: 01:28:03
Перевод: Многоголосый закадровый
Релиз группа: Fenix

Описание фильма:
Любовная история Палестинца из Иерусалима и палестинки из Рамаллы. Герой фильма мечется между больным отцом и любимой женщиной, пытаясь сохранить их жизнь. Из-за политической ситуации два города разделены контрольно-пропускным пунктом израильской армии. Простые и естественные чувства приходится таить. Влюбленные обязаны подчиняться правилам военного времени. Они обречены скрываться, сидя в автомобиле у пограничного пункта…
Все релизы фильма
Видеокодек: Xvid
Битрейт видео: ~973kbps
Размер кадра: 592x336
Качество видео: DVDRip
Аудио 1: Русский, MP3, 128kbps, 2ch, Stereo, Многоголосый закадровый.
Аудио 2: Франзцуский (местами арабский), MP3, 121kbps, 2ch, Dual Mono
Сэмпл: Ссылка

MEDIAINFO

Формат : AVI
Формат/Информация : Audio Video Interleave
Размер файла : 777 Мбайт
Продолжительность : 1 ч. 28 м.
Режим общего битрейта : Переменный
Общий поток : 1233 Кбит/сек
Программа кодирования : VirtualDubMod 1.5.10.2 (build 2540/release)
Библиотека кодирования : VirtualDubMod build 2540/release
Видео
Идентификатор : 0
Формат : MPEG-4 Visual
Профиль формата : Advanced Simple@L5
Параметр BVOP формата : 2
Параметр QPel формата : Нет
Параметр GMC формата : Без точки перехода
Параметр матрицы формата : Default (H.263)
Идентификатор кодека : XVID
Идентификатор кодека/Подсказка : XviD
Продолжительность : 1 ч. 28 м.
Битрейт : 973 Кбит/сек
Ширина : 592 пикселя
Высота : 336 пикселей
Соотношение сторон : 16:9
Частота кадров : 23,976 кадра/сек
Цветовое пространство : YUV
Субдискретизация насыщенности : 4:2:0
Битовая глубина : 8 бит
Тип развёртки : Прогрессивная
Метод сжатия : С потерями
Бит/(Пиксели*Кадры) : 0.204
Размер потока : 613 Мбайт (79%)
Библиотека кодирования : XviD 1.2.0SMP (UTC 2006-01-08)
Аудио #1
Идентификатор : 1
Формат : MPEG Audio
Версия формата : Version 1
Профиль формата : Layer 3
Режим : Joint stereo
Расширение режима : MS Stereo
Идентификатор кодека : 55
Идентификатор кодека/Подсказка : MP3
Продолжительность : 1 ч. 26 м.
Вид битрейта : Постоянный
Битрейт : 128 Кбит/сек
Каналы : 2 канала
Частота : 48,0 КГц
Метод сжатия : С потерями
Размер потока : 78,8 Мбайт (10%)
Выравнивание : Разделение по промежуткам
Продолжительность промежутка : 43 мс. (1,02 видеокадр)
Время предзагрузки промежутка : 500 мс.
Аудио #2
Идентификатор : 2
Формат : MPEG Audio
Версия формата : Version 1
Профиль формата : Layer 3
Режим : Dual mono
Идентификатор кодека : 55
Идентификатор кодека/Подсказка : MP3
Продолжительность : 1 ч. 28 м.
Вид битрейта : Переменный
Битрейт : 121 Кбит/сек
Номинальный битрейт : 128 Кбит/сек
Каналы : 2 канала
Частота : 48,0 КГц
Метод сжатия : С потерями
Размер потока : 76,3 Мбайт (10%)
Выравнивание : Разделение по промежуткам
Продолжительность промежутка : 42 мс. (1,00 видеокадр)
Время предзагрузки промежутка : 500 мс.
Библиотека кодирования : LAME3.96r
Настройки программы : -m d -V 4 -q 3 -lowpass 17.5 --abr 128
Скриншоты:

Время раздачи: 24/7. Иногда (крайне редко) только ночью.

[Цитировать]



Показать сообщения:    

Текущее время: 10-Дек 15:43

Часовой пояс: UTC + 3


Вы не можете начинать темы
Вы не можете отвечать на сообщения
Вы не можете редактировать свои сообщения
Вы не можете удалять свои сообщения
Вы не можете голосовать в опросах
Вы не можете прикреплять файлы к сообщениям
Вы не можете скачивать файлы

!ВНИМАНИЕ!
Сайт не предоставляет электронные версии произведений, а занимается лишь коллекционированием и каталогизацией ссылок, присылаемых и публикуемых на форуме нашими читателями. Если вы являетесь правообладателем какого-либо представленного материала и не желаете, чтобы ссылка на него находилась в нашем каталоге, свяжитесь с нами, и мы незамедлительно удалим ее. Файлы для обмена на трекере предоставлены пользователями сайта, и администрация не несет ответственности за их содержание. Просьба не заливать файлы, защищенные авторскими правами, а также файлы нелегального содержания!