[ Сегодня идет свободное скачивание без начисления Download ]


Статистика раздачи
Нет
 
   
 
Top  
 
 
-Быстрый и мертвый / The Quick and the Dead (1995) BDRip- Русское название: Быстрый и мертвый
Оригинальное название: The Quick and the Dead
Год выпуска: 1995
Страна: США, Япония
Жанр: Боевик, триллер, вестерн--Режиссер: Сэм Рэйми
Актеры: Шэрон Стоун (Ellen 'The Lady'), Рассел Кроу (Cort), Джин Хэкмен (John Herod), Леонардо ДиКаприо (Fee Herod 'The Kid'), Тобин Белл (Dog Kelly), Кит Дэвид (Sgt. Clay Cantrell), Лэнс Хенриксен (Ace Hanlon), Гэри Синиз (The Marshal), Робертс Блоссом (Doc Wallace), Кевин Конуэй (Eugene Dred), Пэт Хингл (Horace), Марк Бун Джуниор (Scars)
Дублёры: Алёна Ивченко (Ellen 'The Lady'), Алексей Мясников (Cort), Юрий Саранцев (John Herod), Андрей Бархударов (Fee Herod 'The Kid'), Александр Рыжков (Dog Kelly), Всеволод Абдулов (Dog Kelly; Eugene Dred), Александр Новиков (Sgt. Clay Cantrell), Борис Токарев (Ace Hanlon), Владимир Конкин (The Marshal), Владимир Ферапонтов (Horace), Михаил Тихонов (Blind Boy), Борис Быстров (Spotted Horse)-Описание фильма: Пустыня, и посреди нее — маленький грязный городок. Здесь только женщины и больные не носят кобуры на поясе. В городе хозяйничает майор Херад — жестокий и хладнокровный человек. Все его боятся, и каждая собака его знает. Если он разрешил тебе — ты можешь жить. Но однажды на горизонте появляется незнакомый всадник. Он въезжает в город и медленно движется по главной улице. Но, вот незадача: это не он, а она — таинственная женщина-ковбой. Никто еще не догадывается, что появление Эллен изменит жизнь всего городка…- [ Sample-Продолжительность: 01:47:00
Перевод: Дублированный, профессиональный многоголосый, авторский
Язык субтитров: Русские, английские
Вид субтитров: Вшитые отключаемые--Качество видео: BDRip
Видеокодек: MPEG-4 AVC/H.264
Битрейт видео: ~2715 Kbps
Размер кадра: 1024x552
Аудио 1: Русский; AC3; 448 Kbps; CBR; 6 ch - Дублированный (Сони+ВидеоСервис)
Аудио 2: Русский; AC3; 224 Kbps; CBR; 2 ch - Многоголосый (ВидеоСервис)
Аудио 3: Русский; AC3; 224 Kbps; CBR; 2 ch - Многоголосый (Первый канал)
Аудио 4: Русский; AC3; 256 Kbps; CBR; 2 ch - (А.Гаврилов)
Аудио 5: Англ-ий; AC3; 448 Kbps; CBR; 6 ch-

MediaInfo:

General
Unique ID : 199104364075124682947816386148161247155 (0x95CA1B0E0B4AAC3893B9EE1C99DF57B3)
Complete name : G:\Bystriy.i.mertviy.1995.(H.264).BDRip.mkv
Format : Matroska
Format version : Version 1
File size : 3.25 GiB
Duration : 1h 47mn
Overall bit rate : 4 319 Kbps
Encoded date : UTC 2013-02-06 13:59:12
Writing application : mkvmerge v2.1.0 ('Another Place To Fall') built on Aug 19 2007 13:40:07
Writing library : libebml v0.7.7 + libmatroska v0.8.1
Video
ID : 1
Format : AVC
Format/Info : Advanced Video Codec
Format profile : High@L4.1
Format settings, CABAC : Yes
Format settings, ReFrames : 8 frames
Codec ID : V_MPEG4/ISO/AVC
Duration : 1h 47mn
Bit rate : 2 715 Kbps
Width : 1 024 pixels
Height : 552 pixels
Display aspect ratio : 1.85:1
Frame rate : 23.976 fps
Color space : YUV
Chroma subsampling : 4:2:0
Bit depth : 8 bits
Scan type : Progressive
Bits/(Pixel*Frame) : 0.200
Stream size : 1.98 GiB (61%)
Writing library : x264 core 115 r1937 aa21558
Encoding settings : cabac=1 / ref=8 / deblock=1:-2:-2 / analyse=0x3:0x113 / me=umh / subme=8 / psy=1 / psy_rd=1.00:0.10 / mixed_ref=0 / me_range=32 / chroma_me=1 / trellis=2 / 8x8dct=1 / cqm=0 / deadzone=21,11 / fast_pskip=1 / chroma_qp_offset=-3 / threads=6 / sliced_threads=0 / nr=0 / decimate=1 / interlaced=0 / bluray_compat=0 / constrained_intra=0 / bframes=8 / b_pyramid=2 / b_adapt=2 / b_bias=0 / direct=3 / weightb=1 / open_gop=0 / weightp=0 / keyint=240 / keyint_min=23 / scenecut=40 / intra_refresh=0 / rc_lookahead=30 / rc=2pass / mbtree=1 / bitrate=2715 / ratetol=1.0 / qcomp=0.60 / qpmin=15 / qpmax=47 / qpstep=3 / cplxblur=20.0 / qblur=0.5 / ip_ratio=1.40 / aq=1:1.10
Language : English
Default : Yes
Forced : No
Audio #1
ID : 2
Format : AC-3
Format/Info : Audio Coding 3
Mode extension : CM (complete main)
Format settings, Endianness : Big
Codec ID : A_AC3
Duration : 1h 47mn
Bit rate mode : Constant
Bit rate : 448 Kbps
Channel(s) : 6 channels
Channel positions : Front: L C R, Side: L R, LFE
Sampling rate : 48.0 KHz
Bit depth : 16 bits
Compression mode : Lossy
Stream size : 345 MiB (10%)
Title : Дублированный (Сони+ВидеоСервис)
Language : Russian
Default : Yes
Forced : No
Audio #2
ID : 3
Format : AC-3
Format/Info : Audio Coding 3
Mode extension : CM (complete main)
Format settings, Endianness : Big
Codec ID : A_AC3
Duration : 1h 47mn
Bit rate mode : Constant
Bit rate : 224 Kbps
Channel(s) : 2 channels
Channel positions : Front: L R
Sampling rate : 48.0 KHz
Bit depth : 16 bits
Compression mode : Lossy
Stream size : 173 MiB (5%)
Title : Профессиональный многоголосый (ВидеоСервис)
Language : Russian
Default : No
Forced : No
Audio #3
ID : 4
Format : AC-3
Format/Info : Audio Coding 3
Mode extension : CM (complete main)
Format settings, Endianness : Big
Codec ID : A_AC3
Duration : 1h 47mn
Bit rate mode : Constant
Bit rate : 224 Kbps
Channel(s) : 2 channels
Channel positions : Front: L R
Sampling rate : 48.0 KHz
Bit depth : 16 bits
Compression mode : Lossy
Stream size : 173 MiB (5%)
Title : Профессиональный многоголосый (Первый канал)
Language : Russian
Default : No
Forced : No
Audio #4
ID : 5
Format : AC-3
Format/Info : Audio Coding 3
Mode extension : CM (complete main)
Format settings, Endianness : Big
Codec ID : A_AC3
Duration : 1h 47mn
Bit rate mode : Constant
Bit rate : 256 Kbps
Channel(s) : 2 channels
Channel positions : Front: L R
Sampling rate : 48.0 KHz
Bit depth : 16 bits
Compression mode : Lossy
Stream size : 197 MiB (6%)
Title : Авторский одноголосый (А.Гаврилов)
Language : Russian
Default : No
Forced : No
Audio #5
ID : 6
Format : AC-3
Format/Info : Audio Coding 3
Mode extension : CM (complete main)
Format settings, Endianness : Big
Codec ID : A_AC3
Duration : 1h 47mn
Bit rate mode : Constant
Bit rate : 448 Kbps
Channel(s) : 6 channels
Channel positions : Front: L C R, Side: L R, LFE
Sampling rate : 48.0 KHz
Bit depth : 16 bits
Compression mode : Lossy
Stream size : 345 MiB (10%)
Title : Оригинал
Language : English
Default : No
Forced : No
Text #1
ID : 7
Format : UTF-8
Codec ID : S_TEXT/UTF8
Codec ID/Info : UTF-8 Plain Text
Title : Русские
Language : Russian
Default : Yes
Forced : No
Text #2
ID : 8
Format : UTF-8
Codec ID : S_TEXT/UTF8
Codec ID/Info : UTF-8 Plain Text
Title : Английские
Language : English
Default : No
Forced : No
Menu
00:00:00.000 : en:0:00:00.000
00:07:20.314 : en:0:07:20.314
00:15:25.174 : en:0:15:25.174
00:20:39.529 : en:0:20:39.529
00:28:14.150 : en:0:28:14.150
00:34:40.620 : en:0:34:40.620
00:40:48.904 : en:0:40:48.904
00:47:40.357 : en:0:47:40.357
00:53:18.945 : en:0:53:18.945
00:59:50.753 : en:0:59:50.753
01:06:26.565 : en:1:06:26.565
01:12:24.923 : en:1:12:24.923
01:16:25.330 : en:1:16:25.330
01:24:02.620 : en:1:24:02.620
01:33:44.243 : en:1:33:44.243
01:38:36.285 : en:1:38:36.285
-Скриншоты:
-Время раздачи: С 09:00 до 24:00

[Цитировать]



Показать сообщения:    

Текущее время: 10-Дек 09:58

Часовой пояс: UTC + 3


Вы не можете начинать темы
Вы не можете отвечать на сообщения
Вы не можете редактировать свои сообщения
Вы не можете удалять свои сообщения
Вы не можете голосовать в опросах
Вы не можете прикреплять файлы к сообщениям
Вы не можете скачивать файлы

!ВНИМАНИЕ!
Сайт не предоставляет электронные версии произведений, а занимается лишь коллекционированием и каталогизацией ссылок, присылаемых и публикуемых на форуме нашими читателями. Если вы являетесь правообладателем какого-либо представленного материала и не желаете, чтобы ссылка на него находилась в нашем каталоге, свяжитесь с нами, и мы незамедлительно удалим ее. Файлы для обмена на трекере предоставлены пользователями сайта, и администрация не несет ответственности за их содержание. Просьба не заливать файлы, защищенные авторскими правами, а также файлы нелегального содержания!