[ Сегодня идет свободное скачивание без начисления Download ]


Статистика раздачи
Нет
 
   
 
Top  
 
 
-Убийства на радио / Radioland Murders (1994) DVDRip- Страна: США
Русское название: Убийства на радио
Оригинальное название: Radioland Murders
Год выпуска: 1994
Жанр: Комедия, Детектив, Мелодрама
Описание фильма:
Действие фильма разворачивается в Чикаго начала 40-х годов, во времена, когда телевидение только зарождалось, и радио играло более важную роль в жизни людей.
За одну ночь в помещении новой радиостудии происходит целая серия загадочных убийств. Лейтенанту полиции Кроссу, отвечающему за расследование, предстоит выяснить, кто же убийца.
Режиссер: Мэл Смит / Mel Smith
Актеры: Брайан Бенбен, Мэри Стюарт Мастерсон, Нед Битти, Джордж Барнс, Скотт Майкл, Кэмпбелл Брайон, Джеймс Майкл Лернер, Майкл МакКин, Джефри Тэмбор, Стивен Тоболовски
Продолжительность: 01:47:42
Перевод: Двухголосный закадровый

Качество: DVDRip by laspory JSM
Формат: AVI
Видео: XviD, 720х304, 2.35:1, 23.976 fps, 1 842 Kbps, Bits/(Pixel*Frame): 0.351
Аудио: AC3, 192 Kbps, 1 channel, Front: C, 48.0 KHz, 16 bits, Lossy, Русский, Двухголосный закадровый (телеканал "СТС")
Оригинальная дорожка: нет
Субтитры: нет
Сэмпл: Ссылка

Mediainfo

General
Complete name : Убийства на радио. Radioland Murders. 1994. (отличная эксцентрическая комедия). DVDRip. DVO (СТС).avi
Format : AVI
Format/Info : Audio Video Interleave
File size : 1.54 GiB
Duration : 1h 47mn
Overall bit rate : 2 044 Kbps
Movie name : Убийства на радио / Radioland Murders (1994)
Director : Mel Smith
Writing application : VirtualDubMod 1.5.10.3 (build 2550/release)
Writing library : VirtualDubMod build 2550/release
Original source form/Name : DVDRip
Copyright : video by _int_ ; audio by laspory JSM
Video
ID : 0
Format : MPEG-4 Visual
Format profile : Advanced [email protected]
Format settings, BVOP : No
Format settings, QPel : No
Format settings, GMC : No warppoints
Format settings, Matrix : Custom
Codec ID : XVID
Codec ID/Hint : XviD
Duration : 1h 47mn
Bit rate : 1 842 Kbps
Width : 720 pixels
Height : 304 pixels
Display aspect ratio : 2.35:1
Frame rate : 23.976 fps
Color space : YUV
Chroma subsampling : 4:2:0
Bit depth : 8 bits
Scan type : Progressive
Compression mode : Lossy
Bits/(Pixel*Frame) : 0.351
Stream size : 1.39 GiB (90%)
Writing library : XviD 1.2.0.dev47 (UTC 2006-11-01)
Audio
ID : 1
Format : AC-3
Format/Info : Audio Coding 3
Mode extension : CM (complete main)
Format settings, Endianness : Big
Codec ID : 2000
Duration : 1h 47mn
Bit rate mode : Constant
Bit rate : 192 Kbps
Channel(s) : 1 channel
Channel positions : Front: C
Sampling rate : 48.0 KHz
Bit depth : 16 bits
Compression mode : Lossy
Stream size : 148 MiB (9%)
Alignment : Split accross interleaves
Interleave, duration : 42 ms (1.00 video frame)
Interleave, preload duration : 500 ms
Title : Russian, DVO CTC
Имхо. Технические характеристики аудиодорожки - не "айс" (в домашнем кинотеатре, если только с какими-нибудь эффектами виртуализации звука смотреть).
И я это прекрасно понимаю. Увы, это всё, что имеется в наличии.
Однако, перевод и озвучка достаточно хороши.
Со слов создателя этого рипа (laspory JSM): Цитата: "Дорожка была записана в 90-х гг. с телеканала СТС. Оцифровано, почищено, подогнано и т.д. и т.п." Скриншоты:

Моё мнение о фильме

Совершенно бесподобная комедия с прекрасной игрой прекрасных актёров.
Очень рекомендую к просмотру.
Время раздачи: С 10:00 до 17:00 (мск)

[Цитировать]



Показать сообщения:    

Текущее время: 06-Дек 13:09

Часовой пояс: UTC + 3


Вы не можете начинать темы
Вы не можете отвечать на сообщения
Вы не можете редактировать свои сообщения
Вы не можете удалять свои сообщения
Вы не можете голосовать в опросах
Вы не можете прикреплять файлы к сообщениям
Вы не можете скачивать файлы

!ВНИМАНИЕ!
Сайт не предоставляет электронные версии произведений, а занимается лишь коллекционированием и каталогизацией ссылок, присылаемых и публикуемых на форуме нашими читателями. Если вы являетесь правообладателем какого-либо представленного материала и не желаете, чтобы ссылка на него находилась в нашем каталоге, свяжитесь с нами, и мы незамедлительно удалим ее. Файлы для обмена на трекере предоставлены пользователями сайта, и администрация не несет ответственности за их содержание. Просьба не заливать файлы, защищенные авторскими правами, а также файлы нелегального содержания!