[ Сегодня идет свободное скачивание без начисления Download ]


Статистика раздачи
Нет
 
   
 
Top  
 
 
-Полный привод / Le Boulet (2002) DVDRip [H.264]- Страна: Франция, Великобритания
Русское название: Полный привод
Оригинальное название: Le Boulet
Год выпуска: 2002
Жанр: Комедия
Описание фильма:
Заключенный Мольтес на пару с охранником Реджо — страстные игроки. Каждую неделю Мольтес заполнял лотерейные билеты и отдавал их на проверку Реджо. И вот однажды выяснилось, что Мольтес угадал 6 номеров. А это 15 миллионов долларов!
Но Реджо внезапно исчезает, а Мольтес решается на побег, чтобы вернуть свой счастливый билет. В конце концов Мольтесу удается найти Реджо, но оказывается, что билет — у его жены, которая как раз сбежала. И тогда, чтобы найти деньги и вернуть жену, Мольтес и Реджо отправляются в Африку…
Режиссер: Ален Берберян / Alain Berb?rian, Фредерик Форестье / Fr?d?ric Forestier
Актеры: Жерар Ланвен, Бенуа Пульворд, Хосе Гарсия, Джимон Хонсу, Росси де Пальма, Жан Бенгиги, Гари Типлэди, Жерар Дармон, Стоми Багси, Марко Принц
Продолжительность: 01:43:56
Перевод: Дубляж

Качество: DVDRip
Формат: MKV
Видео: x264, 716х432@1018x432, 2.35:1, 25.000 fps, 2 437 Kbps, Bits/(Pixel*Frame): 0.315
Аудио 1: AC3 Dolby Digital, 2/0 (L,R) ch, ~192.00 kbps avg, Русский, Дубляж
Аудио 2: AC3 Dolby Digital, 2/0 (L,R) ch, ~192.00 kbps avg, Original, French
Субтитры: Русские
Сэмпл: Ссылка

Mediainfo

General
Complete name : Полный привод. Le Boulet. 2002. (Франция-Великобритания, абсолютно безбашенная эксцентричекая прикл. комедия). DVDRip AVC.mkv
Format : Matroska
Format version : Version 4 / Version 2
File size : 2.42 GiB
Duration : 1h 43mn
Overall bit rate : 3 334 Kbps
Encoded date : UTC 2013-01-21 14:12:01
Writing application : mkvmerge v6.0.0 ('Coming Up For Air') built on Jan 20 2013 09:52:00
Writing library : libebml v1.3.0 + libmatroska v1.4.0
Video
ID : 1
Format : AVC
Format/Info : Advanced Video Codec
Format profile : High@L4.1
Format settings, CABAC : Yes
Format settings, ReFrames : 8 frames
Codec ID : V_MPEG4/ISO/AVC
Duration : 1h 43mn
Bit rate : 2 437 Kbps
Width : 716 pixels
Height : 432 pixels
Display aspect ratio : 2.35:1
Original display aspect ratio : 2.35:1
Frame rate mode : Constant
Frame rate : 25.000 fps
Color space : YUV
Chroma subsampling : 4:2:0
Bit depth : 8 bits
Scan type : Progressive
Bits/(Pixel*Frame) : 0.315
Stream size : 1.72 GiB (71%)
Title : Le Boulet (2002)
Writing library : x264 core 114 r1913 5fd3dce
Encoding settings : cabac=1 / ref=8 / deblock=1:-2:-2 / analyse=0x3:0x133 / me=umh / subme=7 / psy=1 / psy_rd=1.00:0.00 / mixed_ref=1 / me_range=48 / chroma_me=1 / trellis=2 / 8x8dct=1 / cqm=0 / deadzone=21,11 / fast_pskip=0 / chroma_qp_offset=-1 / threads=1 / sliced_threads=0 / nr=0 / decimate=1 / interlaced=0 / constrained_intra=0 / bframes=8 / b_pyramid=2 / b_adapt=2 / b_bias=0 / direct=3 / weightb=1 / open_gop=0 / weightp=2 / keyint=250 / keyint_min=25 / scenecut=40 / intra_refresh=0 / rc_lookahead=50 / rc=2pass / mbtree=1 / bitrate=2437 / ratetol=1.0 / qcomp=0.60 / qpmin=10 / qpmax=51 / qpstep=4 / cplxblur=20.0 / qblur=0.5 / ip_ratio=1.40 / aq=2:1.00
Language : French
Default : Yes
Forced : No
Audio #1
ID : 2
Format : AC-3
Format/Info : Audio Coding 3
Mode extension : CM (complete main)
Format settings, Endianness : Big
Codec ID : A_AC3
Duration : 1h 43mn
Bit rate mode : Constant
Bit rate : 448 Kbps
Channel(s) : 6 channels
Channel positions : Front: L C R, Side: L R, LFE
Sampling rate : 48.0 KHz
Bit depth : 16 bits
Compression mode : Lossy
Stream size : 333 MiB (13%)
Title : Дублированный
Language : Russian
Default : Yes
Forced : No
Audio #2
ID : 3
Format : AC-3
Format/Info : Audio Coding 3
Mode extension : CM (complete main)
Format settings, Endianness : Big
Codec ID : A_AC3
Duration : 1h 43mn
Bit rate mode : Constant
Bit rate : 448 Kbps
Channel(s) : 6 channels
Channel positions : Front: L C R, Side: L R, LFE
Sampling rate : 48.0 KHz
Bit depth : 16 bits
Compression mode : Lossy
Stream size : 333 MiB (13%)
Title : Original
Language : French
Default : No
Forced : No
Text
ID : 4
Format : UTF-8
Codec ID : S_TEXT/UTF8
Codec ID/Info : UTF-8 Plain Text
Title : Русские
Language : Russian
Default : No
Forced : No
Скриншоты:

Моё мнение о фильме

Отличная европейская комедия.
Рекомендую.
Время раздачи: С 10:00 до 17:00 (мск)

[Цитировать]



Показать сообщения:    

Текущее время: 10-Дек 15:48

Часовой пояс: UTC + 3


Вы не можете начинать темы
Вы не можете отвечать на сообщения
Вы не можете редактировать свои сообщения
Вы не можете удалять свои сообщения
Вы не можете голосовать в опросах
Вы не можете прикреплять файлы к сообщениям
Вы не можете скачивать файлы

!ВНИМАНИЕ!
Сайт не предоставляет электронные версии произведений, а занимается лишь коллекционированием и каталогизацией ссылок, присылаемых и публикуемых на форуме нашими читателями. Если вы являетесь правообладателем какого-либо представленного материала и не желаете, чтобы ссылка на него находилась в нашем каталоге, свяжитесь с нами, и мы незамедлительно удалим ее. Файлы для обмена на трекере предоставлены пользователями сайта, и администрация не несет ответственности за их содержание. Просьба не заливать файлы, защищенные авторскими правами, а также файлы нелегального содержания!