[ Сегодня идет свободное скачивание без начисления Download ]


Статистика раздачи
Нет
 
   
 
Top  
 
 
-Подарок судьбы / Lucky Break (2001) DVDRip- Страна: Великобритания, Германия
Русское название: Подарок судьбы
Оригинальное название: Lucky Break
Год выпуска: 2001
Жанр: Криминальная комедия, Мелодрама
Описание фильма:
Что-то странное происходит в королевской тюрьме «Лонг Радфорд». Крутые парни из блока строгого режима вдруг надели старинные костюмы, парики и начали брать уроки пения и танца. Оказывается, они репетируют на редкость бездарную музыкальную пьесу, собственноручно написанную начальником тюрьмы.
Все эти театральные прибамбасы должны замаскировать хитроумный план побега, задуманный Джимми Хэндсом, отбывающим длительный срок за ограбление банка. Джимми кажется, что его замысел безупречен. Но все не так просто. Между Джимми и его «вольной» сценической партнершей Аннабел завязался роман.
Режиссер: Питер Каттанео / Peter Cattaneo
Актеры: Джеймс Несбитт, Оливия Уильямс, Тимоти Сполл, Билл Найи, Ленни Джеймс, Рон Кук, Фрэнк Харпер, Рэймонд Варинг, Кристофер Пламмер, Джулиан Бэррэтт
Продолжительность: 01:43:11
Перевод: Многоголосый закадровый

Качество: DVDRip
Формат: mkv
Видео: XviD, 720x304 (2.35:1), 25.000 fps, 1 996 Kbps, 0.365 bit/pixel
Аудио 1: AC3 Dolby Digital, 6 channels, Front: L C R, Side: L R, LFE, 48kHz, ~448.00 kbps avg, Русский, Многоголосый закадровый
Аудио 2: AC3 Dolby Digital, 6 channels, Front: L C R, Side: L R, LFE, 48kHz, ~448.00 kbps avg, Original, English
Субтитры: Русские
Сэмпл: Ссылка

Mediainfo

General
Complete name : Подарок судьбы. Lucky Break. 2001. (Германия, Великобритания, хор. тюремная комедия про побег, мелодрама). DVDRip.mkv
Format : Matroska
Format version : Version 2
File size : 2.13 GiB
Duration : 1h 43mn
Overall bit rate : 2 951 Kbps
Encoded date : UTC 2012-03-12 19:42:57
Writing application : mkvmerge v5.0.1 ('Es ist Sommer') built on Oct 9 2011 11:55:43
Writing library : libebml v1.2.2 + libmatroska v1.3.0
Video
ID : 1
Format : MPEG-4 Visual
Format profile : Advanced Simple@L5
Format settings, BVOP : Yes
Format settings, QPel : No
Format settings, GMC : No warppoints
Format settings, Matrix : Default (MPEG)
Codec ID : V_MS/VFW/FOURCC / XVID
Codec ID/Hint : XviD
Duration : 1h 43mn
Bit rate : 1 996 Kbps
Width : 720 pixels
Height : 304 pixels
Display aspect ratio : 2.35:1
Frame rate mode : Constant
Frame rate : 25.000 fps
Color space : YUV
Chroma subsampling : 4:2:0
Bit depth : 8 bits
Scan type : Progressive
Compression mode : Lossy
Bits/(Pixel*Frame) : 0.365
Stream size : 1.44 GiB (68%)
Title : Подарок судьбы / Lucky Break. 2001
Writing library : XviD 1.2.1 (UTC 2008-12-04)
Language : English
Default : Yes
Forced : No
Audio #1
ID : 2
Format : AC-3
Format/Info : Audio Coding 3
Mode extension : CM (complete main)
Format settings, Endianness : Big
Muxing mode : Header stripping
Codec ID : A_AC3
Duration : 1h 43mn
Bit rate mode : Constant
Bit rate : 448 Kbps
Channel(s) : 6 channels
Channel positions : Front: L C R, Side: L R, LFE
Sampling rate : 48.0 KHz
Bit depth : 16 bits
Compression mode : Lossy
Stream size : 331 MiB (15%)
Title : MVO
Language : Russian
Default : Yes
Forced : No
Audio #2
ID : 3
Format : AC-3
Format/Info : Audio Coding 3
Mode extension : CM (complete main)
Format settings, Endianness : Big
Muxing mode : Header stripping
Codec ID : A_AC3
Duration : 1h 43mn
Bit rate mode : Constant
Bit rate : 448 Kbps
Channel(s) : 6 channels
Channel positions : Front: L C R, Side: L R, LFE
Sampling rate : 48.0 KHz
Bit depth : 16 bits
Compression mode : Lossy
Stream size : 331 MiB (15%)
Title : Original
Language : English
Default : No
Forced : No
Text
ID : 4
Format : UTF-8
Codec ID : S_TEXT/UTF8
Codec ID/Info : UTF-8 Plain Text
Title : Русские
Language : Russian
Default : No
Forced : No

Важно! О нестандартном наполнении контейнера mkv в данной раздаче!

Причиной нестандартного наполнения контейнера .mkv в данном случае было желание "положить" все имеющиеся аудиодорожки и субтитры в один файл с имеющимся видео "вменяемого" размера и качества.
Сделано с помощью mkvmerge.
Файл воспроизводится корректно, рассинхрона/артефактов/рывков изображения (вызванных такой процедурой) - нет. Аудиодорожки переключаются стандартно. Перемотка в штатном режиме.
Однако, чтобы вы убедились в том, что именно у вас (в ваших конкретных условиях просмотра - PC, HD-медиаплеер, TV и пр.) этот файл будет воспроизводиться корректно, - скачайте, пожалуйста, сэмпл!
Скриншоты:

Моё мнение о фильме

Хорошая европейская комедия.
Время раздачи: С 10:00 до 17:00 (мск)

[Цитировать]



Показать сообщения:    

Текущее время: 10-Дек 11:59

Часовой пояс: UTC + 3


Вы не можете начинать темы
Вы не можете отвечать на сообщения
Вы не можете редактировать свои сообщения
Вы не можете удалять свои сообщения
Вы не можете голосовать в опросах
Вы не можете прикреплять файлы к сообщениям
Вы не можете скачивать файлы

!ВНИМАНИЕ!
Сайт не предоставляет электронные версии произведений, а занимается лишь коллекционированием и каталогизацией ссылок, присылаемых и публикуемых на форуме нашими читателями. Если вы являетесь правообладателем какого-либо представленного материала и не желаете, чтобы ссылка на него находилась в нашем каталоге, свяжитесь с нами, и мы незамедлительно удалим ее. Файлы для обмена на трекере предоставлены пользователями сайта, и администрация не несет ответственности за их содержание. Просьба не заливать файлы, защищенные авторскими правами, а также файлы нелегального содержания!